Loading...

Belinda Carlisle - Live Your Life Be Free 1991 (2013) [Remastered...

  • Category Music
  • Type Lossless
  • Language English
  • Total size 890.4 MB
  • Uploaded By was95was
  • Downloads 216
  • Last checked 1 day ago
  • Date uploaded 5 days ago
  • Seeders 1
  • Leechers 0

Infohash : 2E81D2A58B287BE53B8ACF20892F698588441C06



Quality-Lossless
Release-1991
Duration-02:00:17
File Size-933.6 MB
Genre-Pop
Cover Size-1200px

----------------------------------------------------------------------------------------------
Analyzed: Live Your Life Be Free (Remastered & Expanded Special Edition) CD 2 / Artist: Belinda Carlisle
----------------------------------------------------------------------------------------------
DR Peak RMS Duration Title [codec]
----------------------------------------------------------------------------------------------
DR8 -0.05 dB -9.78 dB 5:32 01 - Live Your Life Be Free (Club Mix) [flac]
DR8 -0.05 dB -9.87 dB 5:16 02 - Little Black Book (Little Black Mix) [flac]
DR7 -0.05 dB -9.85 dB 5:33 03 - Do You Feel Like I Feel (Dance Mix) [flac]
DR7 -0.25 dB -8.51 dB 6:12 04 - I Plead Insanity (Extended 12'') [flac]
DR9 -0.05 dB -9.70 dB 5:46 05 - Live Your Life Be Free (Extended) [flac]
DR9 -0.05 dB -10.78 dB 4:57 06 - Little Black Book (Belinda's In The House Mix) [flac]
DR9 -0.06 dB -11.04 dB 6:09 07 - Live Your Life Be Free (House Mix) [flac]
DR6 -0.05 dB -7.88 dB 4:50 08 - I Plead Insanity (Remix-Dub Mix) [flac]
DR8 -0.45 dB -10.78 dB 3:10 09 - Only A Dream [flac]
DR9 -0.05 dB -10.63 dB 4:29 10 - The Air You Breathe [flac]
----------------------------------------------------------------------------------------------
Number of files: 10
Official DR value: DR8

Sampling rate: 44100 Hz
Average bitrate: 1024kbs
Bits per sample: 16 bit

----------------------------------------------------------------------------------------------
Analyzed: Live Your Life Be Free (Remastered & Expanded Special Edition) CD 1 / Artist: Belinda Carlisle
----------------------------------------------------------------------------------------------
DR Peak RMS Duration Title [codec]
----------------------------------------------------------------------------------------------
DR9 -0.05 dB -11.52 dB 5:16 01 - Live Your Life Be Free [flac]
DR10 -0.05 dB -12.35 dB 5:08 02 - Do You Feel Like I Feel? [flac]
DR10 -0.05 dB -12.92 dB 4:21 03 - Half The World [flac]
DR9 -0.45 dB -11.80 dB 4:09 04 - You Came Out Of Nowhere [flac]
DR8 -0.45 dB -10.83 dB 3:54 05 - You're Nothing Without Me [flac]
DR8 -0.05 dB -10.40 dB 4:38 06 - I Plead Insanity [flac]
DR8 -0.05 dB -10.55 dB 5:19 07 - Emotional Highway [flac]
DR9 -0.35 dB -11.70 dB 4:13 08 - Little Black Book [flac]
DR7 -0.95 dB -9.64 dB 5:08 09 - Love Revolution [flac]
DR7 -0.45 dB -9.83 dB 4:12 10 - World Of Love [flac]
DR8 -0.53 dB -11.23 dB 4:41 11 - Loneliness Game [flac]
DR8 -0.70 dB -10.77 dB 4:23 12 - Live Your Life Be Free (Single Edit) [flac]
DR8 -0.65 dB -10.45 dB 4:15 13 - Do You Feel Like I Feel (Single Edit) [flac]
DR9 -0.05 dB -10.98 dB 4:12 14 - I Plead Insanity (Single Mix) [flac]
DR9 -0.05 dB -10.40 dB 4:17 15 - Live Your Life Be Free (Radio Edit) [flac]
----------------------------------------------------------------------------------------------
Number of files: 15
Official DR value: DR8

Sampling rate: 44100 Hz
Average bitrate: 1038kbs
Bits per sample: 16 bit

Files:

Belinda Carlisle - Live Your Life Be Free 1991 (2013) [Remastered & Expanded Special Edition] Flac
  • [TGx]Downloaded from torrentgalaxy.org .txt (0.6 KB)
  • CD1
    • 01 - Live Your Life Be Free.flac (38.4 MB)
    • 02 - Do You Feel Like I Feel.flac (39.2 MB)
    • 03 - Half The World.flac (31.3 MB)
    • 04 - You Came Out Of Nowhere.flac (30.7 MB)
    • 05 - You're Nothing Without Me.flac (28.6 MB)
    • 06 - I Plead Insanity.flac (34.5 MB)
    • 07 - Emotional Highway.flac (37.9 MB)
    • 08 - Little Black Book.flac (31.9 MB)
    • 09 - Love Revolution.flac (39.1 MB)
    • 10 - World Of Love.flac (31.8 MB)
    • 11 - Loneliness Game.flac (35.1 MB)
    • 12 - Live Your Life Be Free (Single Edit).flac (32.8 MB)
    • 13 - Do You Feel Like I Feel (Single Edit).flac (33.3 MB)
    • 14 - I Plead Insanity (Single Mix).flac (31.1 MB)
    • 15 - Live Your Life Be Free (Radio Edit).flac (32.3 MB)
    • dr14.txt (1.8 KB)
    CD2
    • 01 - Live Your Life Be Free (Club Mix).flac (40.7 MB)
    • 02 - Little Black Book (Little Black Mix).flac (37.8 MB)
    • 03 - Do You Feel Like I Feel (Dance Mix).flac (41.9 MB)
    • 04 - I Plead Insanity (Extended 12'').flac (44.7 MB)
    • 05 - Live Your Life Be Free (Extended).flac (44.3 MB)
    • 06 - Little Black Book (Belinda's In The House Mix).flac (33.8 MB)
    • 07 - Live Your Life Be Free (House Mix).flac (45.0 MB)
    • 08 - I Plead Insanity (Remix-Dub Mix).flac (36.5 MB)
    • 09 - Only A Dream.flac (23.4 MB)
    • 10 - The Air You Breathe.flac (34.0 MB)
    • dr14.txt (1.5 KB)
  • cover.jpg (367.4 KB)
  • Torrent Downloaded from Glodls.to.txt (0.2 KB)
  • Torrent downloaded from limetorrents.cc.txt (0.1 KB)
  • Torrent Downloaded from worldwidetorrents.to (0.1 KB)

There are currently no comments. Feel free to leave one :)

Code:

  • udp://tracker.piratepublic.com:1337/announce
  • udp://tracker.pirateparty.gr:6969/announce
  • udp://tracker.coppersurfer.tk:6969/announce
  • udp://tracker.leechers-paradise.org:6969/announce
  • udp://9.rarbg.com:2710/announce
  • //p4p.arenabg.com:1337/announce
  • //tracker.internetwarriors.net:1337/announce
  • udp://tracker.opentrackr.org:1337/announce
  • udp://exodus.desync.com:6969/announce
  • udp://tracker.leechers-paradise.org:6969/announce
  • udp://tracker.zer0day.to:1337/announce
  • udp://eddie4.nl:6969/announce
  • udp://open.demonii.si:1337/announce
  • udp://tracker.iamhansen.xyz:2000/announce
DOWNLOAD Torrent