Loading...

Kalank (2019)Proper Hindi HDRip x264 700MB Esubs

  • Category Movies
  • Type Bollywood
  • Language Hindi
  • Total size 713.3 MB
  • Uploaded By Dakshvv
  • Downloads 15942
  • Last checked 2 weeks ago
  • Date uploaded 2 weeks ago
  • Seeders 354
  • Leechers 61

Infohash : 4B1FB09AD3B6C1B432D94D92D81934D512DAA1FF



Code:



*** General
Format : Matroska
Format version : Version 4
File size : 713 MiB
Duration : 2 h 45 min
Overall bit rate : 601 kb/s
Encoded date : UTC 2019-06-30 16:32:30
Writing application : HandBrake 1.2.1 2019021700
Writing library : Lavf58.20.100
IsTruncated : Yes
ErrorDetectionType : Per level 1

*** Video
ID : 1
Format : AVC
Format/Info : Advanced Video Codec
Format profile : [email protected]
Format settings : CABAC / 4 Ref Frames
Format settings, CABAC : Yes
Format settings, Reference frames : 4 frames
Codec ID : V_MPEG4/ISO/AVC
Duration : 2 h 45 min
Bit rate : 501 kb/s
Width : 660 pixels
Height : 272 pixels
Display aspect ratio : 2.40:1
Frame rate mode : Constant
Frame rate : 30.000 FPS
Color space : YUV
Chroma subsampling : 4:2:0
Bit depth : 8 bits
Scan type : Progressive
Bits/(Pixel*Frame) : 0.093
Stream size : 585 MiB (82%)
Writing library : x264 core 157 r2935 545de2f
Encoding settings : cabac=1 / ref=3 / deblock=1:0:0 / analyse=0x3:0x113 / me=hex / subme=7 / psy=1 / psy_rd=1.00:0.00 / mixed_ref=1 / me_range=16 / chroma_me=1 / trellis=1 / 8x8dct=1 / cqm=0 / deadzone=21,11 / fast_pskip=1 / chroma_qp_offset=-2 / threads=8 / lookahead_threads=1 / sliced_threads=0 / nr=0 / decimate=1 / interlaced=0 / bluray_compat=0 / constrained_intra=0 / bframes=3 / b_pyramid=2 / b_adapt=1 / b_bias=0 / direct=1 / weightb=1 / open_gop=0 / weightp=2 / keyint=300 / keyint_min=30 / scenecut=40 / intra_refresh=0 / rc_lookahead=40 / rc=abr / mbtree=1 / bitrate=501 / ratetol=1.0 / qcomp=0.60 / qpmin=0 / qpmax=69 / qpstep=4 / vbv_maxrate=62500 / vbv_bufsize=78125 / nal_hrd=none / filler=0 / ip_ratio=1.40 / aq=1:1.00
Default : Yes
Forced : No
Color range : Limited
Color primaries : BT.709
Transfer characteristics : BT.709
Matrix coefficients : BT.709

*** Audio
ID : 2
Format : MPEG Audio
Format version : Version 1
Format profile : Layer 3
Format settings : Joint stereo / MS Stereo
Codec ID : A_MPEG/L3
Codec ID/Hint : MP3
Duration : 2 h 45 min
Bit rate mode : Constant
Bit rate : 96.0 kb/s
Channel(s) : 2 channels
Sampling rate : 48.0 kHz
Compression mode : Lossy
Delay relative to video : -23 ms
Stream size : 114 MiB (16%)
Title : Stereo
Writing library : LAME3.100
Language : Hindi
Default : Yes
Forced : No

*** Text
ID : 3
Format : ASS
Codec ID : S_TEXT/ASS
Codec ID/Info : Advanced Sub Station Alpha
Duration : 2 h 40 min
Compression mode : Lossless
Language : English
Default : No
Forced : No








Files:

  • www.TamilRockers.ws - Kalank (2019)[Proper Hindi - HDRip - x264 - 700MB - ESubs].mkv (713.3 MB)

Comments

Code:

  • udp://tracker.coppersurfer.tk:6969/announce
  • udp://tracker.internetwarriors.net:1337/announce
  • udp://tracker.leechers-paradise.org:6969/announce
  • udp://tracker.pirateparty.gr:6969/announce
  • udp://open.demonii.si:1337/announce
  • udp://tracker.iamhansen.xyz:2000/announce
  • udp://9.rarbg.me:2800/announce
  • udp://9.rarbg.to:2720/announce
  • udp://denis.stalker.upeer.me:6969/announce
  • udp://tracker.torrent.eu.org:451/announce
  • udp://ipv4.tracker.harry.lu:80/announce
  • udp://tracker.opentrackr.org:1337/announce
  • udp://exodus.desync.com:6969/announce
  • udp://explodie.org:6969/announce
  • udp://tracker.cyberia.is:6969/announce
DOWNLOAD Torrent