Loading...

New.Girl.Season.7.S07.COMPLETE.720p.x265-LUMI

  • Category TV
  • Type HEVC/x265
  • Language English
  • Total size 1.2 GB
  • Uploaded By lumi265
  • Downloads 3549
  • Last checked 3 hours ago
  • Date uploaded 10 months ago
  • Seeders 18
  • Leechers 8

Infohash : 91BA7F0FACBBF5EFE8CE8069ACF39F9D504445C4

Screens:




Video
ID : 1
Format : HEVC
Format/Info : High Efficiency Video Coding
Format profile : [email protected]@Main
Codec ID : hev1
Codec ID/Info : High Efficiency Video Coding
Duration : 21 min 41 s
Bit rate : 953 kb/s
Width : 1 280 pixels
Height : 720 pixels
Display aspect ratio : 16:9
Frame rate mode : Variable
Frame rate : 23.976 (24000/1001) FPS
Minimum frame rate : 23.974 FPS
Maximum frame rate : 23.981 FPS
Color space : YUV
Chroma subsampling : 4:2:0
Bit depth : 8 bits
Bits/(Pixel*Frame) : 0.043
Stream size : 148 MiB (85%)
Writing library : x265 2.1:[Windows][GCC 5.3.1][64 bit] 8bit
Encoding settings : wpp / ctu=64 / min-cu-size=8 / max-tu-size=32 / tu-intra-depth=1 / tu-inter-depth=1 / me=3 / subme=3 / merange=57 / rect / no-amp / max-merge=3 / temporal-mvp / no-early-skip / rskip / rdpenalty=0 / no-tskip / no-tskip-fast / strong-intra-smoothing / no-lossless / no-cu-lossless / no-constrained-intra / no-fast-intra / open-gop / no-temporal-layers / interlace=0 / keyint=240 / min-keyint=24 / scenecut=40 / rc-lookahead=25 / lookahead-slices=4 / bframes=4 / bframe-bias=0 / b-adapt=2 / ref=4 / limit-refs=3 / limit-modes / weightp / no-weightb / aq-mode=1 / qg-size=32 / aq-strength=1.00 / cbqpoffs=0 / crqpoffs=0 / rd=4 / psy-rd=2.00 / rdoq-level=2 / psy-rdoq=1.00 / log2-max-poc-lsb=8 / no-rd-refine / signhide / deblock=0:0 / sao / no-sao-non-deblock / b-pyramid / cutree / no-intra-refresh / rc=crf / crf=22.0 / qcomp=0.60 / qpmin=0 / qpmax=69 / qpstep=4 / ipratio=1.40 / pbratio=1.30
Encoded date : UTC 2018-09-02 15:34:21
Tagged date : UTC 2018-09-02 15:34:21
Color range : Limited
Color primaries : BT.709
Transfer characteristics : BT.709
Matrix coefficients : BT.709
Codec configuration box : hvcC

Audio
ID : 2
Format : AAC LC
Format/Info : Advanced Audio Codec Low Complexity
Codec ID : mp4a-40-2
Duration : 21 min 41 s
Bit rate mode : Variable
Bit rate : 160 kb/s
Channel(s) : 2 channels
Channel layout : L R
Sampling rate : 48.0 kHz
Frame rate : 46.875 FPS (1024 SPF)
Compression mode : Lossy
Stream size : 24.8 MiB (14%)
Title : Stereo / Stereo
Language : English
Default : Yes
Alternate group : 1
Encoded date : UTC 2018-09-02 15:34:21
Tagged date : UTC 2018-09-02 15:34:21



Files:

New.Girl.Season.7.S07.COMPLETE.720p.x265-LUMI
  • New.Girl.07x01.720p.x265-LUMI.mp4 (173.7 MB)
  • New.Girl.07x02.720p.x265-LUMI.mp4 (173.8 MB)
  • New.Girl.07x03.720p.x265-LUMI.mp4 (138.9 MB)
  • New.Girl.07x04.720p.x265-LUMI.mp4 (131.3 MB)
  • New.Girl.07x05.720p.x265-LUMI.mp4 (145.8 MB)
  • New.Girl.07x06.720p.x265-LUMI.mp4 (135.2 MB)
  • New.Girl.07x07.720p.x265-LUMI.mp4 (155.8 MB)
  • New.Girl.07x08.720p.x265-LUMI.mp4 (156.8 MB)

There are currently no comments. Feel free to leave one :)

Code:

  • udp://tracker.coppersurfer.tk:6969/announce
  • udp://tracker.open-internet.nl:6969/announce
  • udp://exodus.desync.com:6969/announce
  • udp://tracker.opentrackr.org:1337/announce
  • udp://tracker.internetwarriors.net:1337/announce
  • udp://9.rarbg.to:2710/announce
  • udp://public.popcorn-tracker.org:6969/announce
  • udp://tracker.vanitycore.co:6969/announce
  • udp://tracker.mg64.net:6969/announce
  • udp://mgtracker.org:6969/announce
  • udp://tracker.tiny-vps.com:6969/announce
  • udp://thetracker.org:80/announce
  • udp://open.stealth.si:80/announce
  • udp://bt.xxx-tracker.com:2710/announce
  • udp://tracker.uw0.xyz:6969/announce
  • udp://tracker.torrent.eu.org:451/announce
  • udp://tracker.port443.xyz:6969/announce
  • udp://tracker.cypherpunks.ru:6969/announce
  • udp://retracker.lanta-net.ru:2710/announce
  • udp://open.demonii.si:1337/announce
DOWNLOAD Torrent