Loading...

Kidding.S01E01.480p.WEB.x264.ReEnc-LUMI

  • Category TV
  • Type SD
  • Language English
  • Total size 162.7 MB
  • Uploaded By lumi265
  • Downloads 80
  • Last checked 14 hours ago
  • Date uploaded 10 months ago
  • Seeders 8
  • Leechers 3

Infohash : 09DCF7804A08104A455FF40EFF389FA05ADBCC23

I have offsite backups of all my uploads.
If a torrent is dead, comment and request reseed.
Add it to your client, I'll transfer to my seedbox ASAP







Please rate if good, and comment if there are any other resolutions or codecs you’d like me to try, or smaller size (slightly less quality?). I’m a new encoder and want to deliver what you guys want!

Note: I’m an encoder, not a ripper. I’m thankful to those who able great quality sources, allowing me to encode at lower resolutions or lower bitrates for those who want smaller filesize!

Source: Kidding.S01E01.720p.WEB.H264-METCON[eztv] (Thanks!)

Video
ID                                       : 1
Format                                   : AVC
Format/Info                              : Advanced Video Codec
Format profile                           : [email protected]
Format settings                          : CABAC / 5 Ref Frames
Format settings, CABAC                   : Yes
Format settings, RefFrames               : 5 frames
Codec ID                                 : avc1
Codec ID/Info                            : Advanced Video Coding
Duration                                 : 32 min 59 s
Bit rate                                 : 554 kb/s
Width                                    : 854 pixels
Height                                   : 480 pixels
Display aspect ratio                     : 16:9
Original display aspect ratio            : 16:9
Frame rate mode                          : Variable
Frame rate                               : 23.976 (24000/1001) FPS
Minimum frame rate                       : 23.974 FPS
Maximum frame rate                       : 23.981 FPS
Color space                              : YUV
Chroma subsampling                       : 4:2:0
Bit depth                                : 8 bits
Scan type                                : Progressive
Bits/(Pixel*Frame)                       : 0.056
Stream size                              : 131 MiB (80%)
Writing library                          : x264 core 148 r2708 86b7198
Encoding settings                        : cabac=1 / ref=5 / deblock=1:0:0 / analyse=0x1:0x111 / me=umh / subme=8 / psy=1 / psy_rd=1.00:0.00 / mixed_ref=1 / me_range=16 / chroma_me=1 / trellis=1 / 8x8dct=0 / cqm=0 / deadzone=21,11 / fast_pskip=1 / chroma_qp_offset=-2 / threads=12 / lookahead_threads=2 / sliced_threads=0 / nr=0 / decimate=1 / interlaced=0 / bluray_compat=0 / constrained_intra=0 / bframes=3 / b_pyramid=2 / b_adapt=2 / b_bias=0 / direct=3 / weightb=1 / open_gop=0 / weightp=2 / keyint=240 / keyint_min=24 / scenecut=40 / intra_refresh=0 / rc_lookahead=50 / rc=crf / mbtree=1 / crf=24.0 / qcomp=0.60 / qpmin=0 / qpmax=69 / qpstep=4 / vbv_maxrate=20000 / vbv_bufsize=25000 / crf_max=0.0 / nal_hrd=none / filler=0 / ip_ratio=1.40 / aq=1:1.00

Audio
ID                                       : 2
Format                                   : AAC LC
Format/Info                              : Advanced Audio Codec Low Complexity
Codec ID                                 : mp4a-40-2
Duration                                 : 33 min 1 s
Bit rate mode                            : Variable
Bit rate                                 : 128 kb/s
Channel(s)                               : 2 channels
Channel layout                           : L R
Sampling rate                            : 48.0 kHz
Frame rate                               : 46.875 FPS (1024 SPF)
Compression mode                         : Lossy
Stream size                              : 30.3 MiB (19%)
Title                                    : Stereo / Stereo
Language                                 : English

Files:

  • Kidding.S01E01.480p.WEB.x264.ReEnc-LUMI.mp4 (162.7 MB)

There are currently no comments. Feel free to leave one :)

Code:

  • udp://tracker.open-internet.nl:6969/announce
  • udp://tracker.coppersurfer.tk:6969/announce
  • udp://exodus.desync.com:6969/announce
  • udp://tracker.internetwarriors.net:1337/announce
  • udp://tracker.opentrackr.org:1337/announce
  • udp://glotorrents.pw:6969/announce
  • udp://tracker.openbittorrent.com:80/announce
  • udp://9.rarbg.to:2710/announce
  • udp://public.popcorn-tracker.org:6969/announce
  • udp://tracker.vanitycore.co:6969/announce
  • udp://tracker.mg64.net:6969/announce
  • udp://mgtracker.org:6969/announce
  • udp://tracker.tiny-vps.com:6969/announce
  • udp://thetracker.org:80/announce
  • udp://bt.xxx-tracker.com:2710/announce
  • udp://tracker.cypherpunks.ru:6969/announce
  • udp://open.stealth.si:80/announce
  • udp://tracker.torrent.eu.org:451/announce
  • udp://tracker.port443.xyz:6969/announce
  • udp://open.demonii.si:1337/announce
  • udp://tracker.qt.is:6969/announce
  • udp://retracker.lanta-net.ru:2710/announce
  • udp://open.demonii.com:1337/announce
DOWNLOAD Torrent