Loading...

Shameless.US.S09E01.720p.WEB.x265.ReEnc-LUMI

  • Category TV
  • Type HEVC/x265
  • Language English
  • Total size 579.8 MB
  • Uploaded By lumi265
  • Downloads 303
  • Last checked 10 hours ago
  • Date uploaded 10 months ago
  • Seeders 10
  • Leechers 3

Infohash : 2CA77EE52AB65C02FC044D5087629D2B3C2A2D2A

I have offsite backups of all my uploads.
If a torrent is dead, comment and request reseed.
Add it to your client, I'll transfer to my seedbox ASAP


Please help by seeding for as long as possible so others can download!

If you'd like me to do more encodes, season packs, or TV shows, please contribute. Every little bit helps.

BTC: 3NK9rYXiHoX5YgDEdcxa2ukX5RoUZJhnum

Screens:





Please rate if good, and comment if there are any other resolutions or codecs you’d like me to try, or smaller size (slightly less quality?). I’m a new encoder and want to deliver what you guys want!

Note: I’m an encoder, not a ripper. I’m thankful to those who able great quality sources, allowing me to encode at lower resolutions or lower bitrates for those who want smaller filesize!

Source: Shameless.US.S09E01.720p.WEB.h264-CONVOY[eztv] (Thanks!)

Video
ID                                       : 1
Format                                   : HEVC
Format/Info                              : High Efficiency Video Coding
Format profile                           : [email protected]@Main
Codec ID                                 : hev1
Codec ID/Info                            : High Efficiency Video Coding
Duration                                 : 55 min 10 s
Bit rate                                 : 1 207 kb/s
Width                                    : 1 280 pixels
Height                                   : 720 pixels
Display aspect ratio                     : 16:9
Frame rate mode                          : Variable
Frame rate                               : 23.976 (24000/1001) FPS
Minimum frame rate                       : 23.974 FPS
Maximum frame rate                       : 23.981 FPS
Color space                              : YUV
Chroma subsampling                       : 4:2:0
Bit depth                                : 8 bits
Bits/(Pixel*Frame)                       : 0.055
Stream size                              : 476 MiB (82%)
Writing library                          : x265 2.1:[Windows][GCC 5.3.1][64 bit] 8bit
Encoding settings                        : wpp / ctu=64 / min-cu-size=8 / max-tu-size=32 / tu-intra-depth=1 / tu-inter-depth=1 / me=3 / subme=3 / merange=57 / rect / no-amp / max-merge=3 / temporal-mvp / no-early-skip / rskip / rdpenalty=0 / no-tskip / no-tskip-fast / strong-intra-smoothing / no-lossless / no-cu-lossless / no-constrained-intra / no-fast-intra / open-gop / no-temporal-layers / interlace=0 / keyint=240 / min-keyint=24 / scenecut=40 / rc-lookahead=25 / lookahead-slices=4 / bframes=4 / bframe-bias=0 / b-adapt=2 / ref=4 / limit-refs=3 / limit-modes / weightp / no-weightb / aq-mode=1 / qg-size=32 / aq-strength=1.00 / cbqpoffs=0 / crqpoffs=0 / rd=4 / psy-rd=2.00 / rdoq-level=2 / psy-rdoq=1.00 / log2-max-poc-lsb=8 / no-rd-refine / signhide / deblock=0:0 / sao / no-sao-non-deblock / b-pyramid / cutree / no-intra-refresh / rc=crf / crf=22.0 / qcomp=0.60 / qpmin=0 / qpmax=69 / qpstep=4 / ipratio=1.40 / pbratio=1.30

Audio
ID                                       : 2
Format                                   : AAC LC
Format/Info                              : Advanced Audio Codec Low Complexity
Codec ID                                 : mp4a-40-2
Duration                                 : 55 min 10 s
Bit rate mode                            : Variable
Bit rate                                 : 256 kb/s
Channel(s)                               : 6 channels
Channel layout                           : C L R Ls Rs LFE
Sampling rate                            : 48.0 kHz
Frame rate                               : 46.875 FPS (1024 SPF)
Compression mode                         : Lossy
Stream size                              : 101 MiB (17%)
Title                                    : Surround / Surround
Language                                 : English
Default                                  : Yes

Text
ID                                       : 3
Format                                   : Timed Text
Muxing mode                              : sbtl
Codec ID                                 : tx3g
Duration                                 : 53 min 30 s
Bit rate mode                            : Variable
Bit rate                                 : 104 b/s
Stream size                              : 40.9 KiB (0%)
Language                                 : English
Default                                  : Yes
Forced                                   : No
Alternate group                          : 3

Files:

  • Shameless.US.S09E01.720p.WEB.x265.ReEnc-LUMI.mp4 (579.8 MB)

There are currently no comments. Feel free to leave one :)

Code:

  • udp://tracker.open-internet.nl:6969/announce
  • udp://tracker.coppersurfer.tk:6969/announce
  • udp://exodus.desync.com:6969/announce
  • udp://tracker.internetwarriors.net:1337/announce
  • udp://tracker.opentrackr.org:1337/announce
  • udp://glotorrents.pw:6969/announce
  • udp://tracker.openbittorrent.com:80/announce
  • udp://9.rarbg.to:2710/announce
  • udp://public.popcorn-tracker.org:6969/announce
  • udp://tracker.vanitycore.co:6969/announce
  • udp://tracker.mg64.net:6969/announce
  • udp://mgtracker.org:6969/announce
  • udp://tracker.tiny-vps.com:6969/announce
  • udp://thetracker.org:80/announce
  • udp://bt.xxx-tracker.com:2710/announce
  • udp://tracker.cypherpunks.ru:6969/announce
  • udp://open.stealth.si:80/announce
  • udp://tracker.torrent.eu.org:451/announce
  • udp://tracker.port443.xyz:6969/announce
  • udp://open.demonii.si:1337/announce
  • udp://tracker.qt.is:6969/announce
  • udp://retracker.lanta-net.ru:2710/announce
  • udp://open.demonii.com:1337/announce
DOWNLOAD Torrent