Loading...

Press.S01E04.720p.HDTV.x265.ReEnc-LUMI

  • Category TV
  • Type HEVC/x265
  • Language English
  • Total size 287.3 MB
  • Uploaded By lumi265
  • Downloads 14
  • Last checked 10 months ago
  • Date uploaded 10 months ago
  • Seeders 5
  • Leechers 1

Infohash : D5626643318D58E1BC3069CA5E17B33F2D188D7F

Please help by seeding for as long as possible so others can download!

If you'd like me to do more encodes, season packs, or TV shows, please contribute. Every little bit helps.

BTC: 3NK9rYXiHoX5YgDEdcxa2ukX5RoUZJhnum

Screens:




Please rate if good, and comment if there are any other resolutions or codecs you’d like me to try, or smaller size (slightly less quality?). I’m a new encoder and want to deliver what you guys want!

Note: I’m an encoder, not a ripper. I’m thankful to those who able great quality sources, allowing me to encode at lower resolutions or lower bitrates for those who want smaller filesize!

Source: Press.S01E04.720p.HDTV.x264-MTB[eztv] (Thanks!)

Video
ID : 1
Format : HEVC
Format/Info : High Efficiency Video Coding
Format profile : [email protected]@Main
Codec ID : hev1
Codec ID/Info : High Efficiency Video Coding
Duration : 59 min 0 s
Bit rate : 546 kb/s
Width : 1 280 pixels
Height : 640 pixels
Display aspect ratio : 2.000
Frame rate mode : Constant
Frame rate : 25.000 FPS
Color space : YUV
Chroma subsampling : 4:2:0
Bit depth : 8 bits
Bits/(Pixel*Frame) : 0.027
Stream size : 231 MiB (80%)
Writing library : x265 2.1:[Windows][GCC 5.3.1][64 bit] 8bit
Encoding settings : wpp / ctu=64 / min-cu-size=8 / max-tu-size=32 / tu-intra-depth=1 / tu-inter-depth=1 / me=3 / subme=3 / merange=57 / rect / no-amp / max-merge=3 / temporal-mvp / no-early-skip / rskip / rdpenalty=0 / no-tskip / no-tskip-fast / strong-intra-smoothing / no-lossless / no-cu-lossless / no-constrained-intra / no-fast-intra / open-gop / no-temporal-layers / interlace=0 / keyint=250 / min-keyint=25 / scenecut=40 / rc-lookahead=25 / lookahead-slices=0 / bframes=4 / bframe-bias=0 / b-adapt=2 / ref=4 / limit-refs=3 / limit-modes / weightp / no-weightb / aq-mode=1 / qg-size=32 / aq-strength=1.00 / cbqpoffs=0 / crqpoffs=0 / rd=4 / psy-rd=2.00 / rdoq-level=2 / psy-rdoq=1.00 / log2-max-poc-lsb=8 / no-rd-refine / signhide / deblock=0:0 / sao / no-sao-non-deblock / b-pyramid / cutree / no-intra-refresh / rc=crf / crf=22.0 / qcomp=0.60 / qpmin=0 / qpmax=69 / qpstep=4 / ipratio=1.40 / pbratio=1.30

Audio
ID : 2
Format : AAC LC
Format/Info : Advanced Audio Codec Low Complexity
Codec ID : mp4a-40-2
Duration : 59 min 0 s
Bit rate mode : Variable
Bit rate : 128 kb/s
Channel(s) : 2 channels
Channel layout : L R
Sampling rate : 48.0 kHz
Frame rate : 46.875 FPS (1024 SPF)
Compression mode : Lossy
Stream size : 54.1 MiB (19%)
Title : Stereo / Stereo
Language : English


Files:

  • Press.S01E04.720p.HDTV.x265.ReEnc-LUMI.mp4 (287.3 MB)

There are currently no comments. Feel free to leave one :)

Code:

  • udp://tracker.open-internet.nl:6969/announce
  • udp://tracker.coppersurfer.tk:6969/announce
  • udp://exodus.desync.com:6969/announce
  • udp://tracker.internetwarriors.net:1337/announce
  • udp://tracker.opentrackr.org:1337/announce
  • udp://glotorrents.pw:6969/announce
  • udp://tracker.openbittorrent.com:80/announce
  • udp://9.rarbg.to:2710/announce
  • udp://public.popcorn-tracker.org:6969/announce
  • udp://tracker.vanitycore.co:6969/announce
  • udp://tracker.mg64.net:6969/announce
  • udp://mgtracker.org:6969/announce
  • udp://tracker.tiny-vps.com:6969/announce
  • udp://thetracker.org:80/announce
  • udp://bt.xxx-tracker.com:2710/announce
  • udp://tracker.cypherpunks.ru:6969/announce
  • udp://open.stealth.si:80/announce
  • udp://tracker.torrent.eu.org:451/announce
  • udp://tracker.port443.xyz:6969/announce
  • udp://open.demonii.si:1337/announce
  • udp://tracker.qt.is:6969/announce
  • udp://retracker.lanta-net.ru:2710/announce
  • udp://open.demonii.com:1337/announce
cdn
DOWNLOAD Torrent
X
Attention! Use a VPN when Accessing Free Content !
Your IP address is - Country:
Your Internet provider Tracks your Activity! Hide your IP ADDRESS with a VPN!
Bonus: Get Lag-Free Streams & No popups with any VPN Purchased !

Download Here