Loading...

Game.of.Thrones.S08E02.1080p.WEB.x265.6CH.ReEnc-LUMI

  • Category TV
  • Type HEVC/x265
  • Language English
  • Total size 773.0 MB
  • Uploaded By lumi265
  • Downloads 65733
  • Last checked 3 months ago
  • Date uploaded 4 months ago
  • Seeders 666
  • Leechers 18
80%
April 22, 2019, 3:00 am

Game of Thrones

The battle at Winterfell is approaching. Jaime is confronted with the consequences of the past.

Infohash : 5965191BF2E9B615E3665F52179CA49E5A09EDCB




Seed for at least 24 hours

If you like the upload, please leave a comment , and any other feedback / requests are most welcome!
x265 encodes of the same size have much more detail than x264, try it for yourself once!
Please help me by seeding for as long as possible, it doesn't hurt you and helps others download!

SEED TILL YOU BLEED

Please donate:

Code:


Bitcoin: 3HKCmf9e2oTr9KvJcXCDRaCjg1AxioL1UE
BCH: qqgvak0004cj9g9p2fqcz0s8q8384s8mecq88swgpe
ETH: 0x865fEC58a2d98f44d7253A1d5cE18b40fb124462
LTC: MLogKCRBvwoeXe5z7wej8V93sQi1ue9uTr
ZEC: t1K9grYE1ZkQF9ftmowo3ejJZadpxKg9zn9



Screens:




Source: game.of.thrones.s08e02.1080p.web.h264-memento (Thanks!)

Code:


Video
ID                                       : 1
Format                                   : HEVC
Format/Info                              : High Efficiency Video Coding
Format profile                           : [email protected]@Main
Codec ID                                 : hev1
Codec ID/Info                            : High Efficiency Video Coding
Duration                                 : 1 h 6 min
Bit rate                                 : 1 429 kb/s
Width                                    : 1 920 pixels
Height                                   : 1 080 pixels
Display aspect ratio                     : 16:9
Frame rate mode                          : Constant
Frame rate                               : 23.976 (24000/1001) FPS
Color space                              : YUV
Chroma subsampling                       : 4:2:0
Bit depth                                : 8 bits
Scan type                                : Progressive
Bits/(Pixel*Frame)                       : 0.029
Stream size                              : 679 MiB (88%)
Writing library                          : x265 0.0:[Linux][GCC 6.3.0][64 bit] 8bit+10bit+12bit
Audio
ID                                       : 2
Format                                   : AAC
Format/Info                              : Advanced Audio Codec
Format profile                           : LC
Codec ID                                 : 40
Duration                                 : 1 h 6 min
Duration_LastFrame                       : -11 ms
Bit rate mode                            : Constant
Bit rate                                 : 192 kb/s
Channel(s)                               : 2 channels
Channel(s)_Original                      : 6 channels
Channel positions                        : Front: L C R, Side: L R, LFE
Sampling rate                            : 48.0 kHz
Frame rate                               : 46.875 FPS (1024 spf)
Compression mode                         : Lossy
Stream size                              : 91.8 MiB (12%)
Language                                 : English

Text
ID                                       : 3
Format                                   : Timed Text
Muxing mode                              : sbtl
Codec ID                                 : tx3g
Duration                                 : 1 h 6 min
Bit rate mode                            : Variable
Bit rate                                 : 69 b/s
Stream size                              : 33.7 KiB (0%)
Language                                 : English
Default                                  : Yes



Files:

  • Game.of.Thrones.S08E02.1080p.WEB.x265.6CH.ReEnc-LUMI.mp4 (773.0 MB)

Comments

Code:

  • udp://tracker.coppersurfer.tk:6969/announce
cdn
DOWNLOAD Torrent
X
Attention! Use a VPN when Accessing Free Content !
Your IP address is - Country:
Your Internet provider Tracks your Activity! Hide your IP ADDRESS with a VPN!
Bonus: Get Lag-Free Streams & No popups with any VPN Purchased !

Download Here