Loading...

Dragon Ball Super Broly (2018) 1080p BDRip x265 AC3 5.1 Goki [SEV...

  • Category Anime
  • Type Dual Audio
  • Language English
  • Total size 4.6 GB
  • Uploaded By Goki
  • Downloads 190
  • Last checked 1 month ago
  • Date uploaded 1 month ago
  • Seeders 7
  • Leechers 2

Infohash : 87DB1E0FF5AC8179581DDEBF724A146A06BE5C67



Screenshots







Media Information



Unique ID : 27400017441138325316202369333739513415 (0x149D0D28FCAC711CFDBD4BAF2D89E647)
Complete name : Dragon Ball Super Broly (2018) 1080p BDRip x265 AC3 5.1 Goki [SEV].mkv
Format : Matroska
Format version : Version 4
File size : 4.60 GiB
Duration : 1 h 41 min
Overall bit rate : 6 487 kb/s
Movie name : Dragon Ball Super Broly (2018) 1080p BDRip x265 AC3 5.1 Goki [SEV]
Encoded date : UTC 2019-05-03 13:14:16
Writing application : mkvmerge v28.2.0 ('The Awakening') 64-bit
Writing library : libebml v1.3.6 + libmatroska v1.4.9

Video
ID : 1
Format : HEVC
Format/Info : High Efficiency Video Coding
Format profile : Main [email protected]@Main
Codec ID : V_MPEGH/ISO/HEVC
Duration : 1 h 41 min
Bit rate : 5 552 kb/s
Width : 1 920 pixels
Height : 1 080 pixels
Display aspect ratio : 16:9
Frame rate mode : Constant
Frame rate : 24.000 FPS
Color space : YUV
Chroma subsampling : 4:2:0
Bit depth : 10 bits
Bits/(Pixel*Frame) : 0.112
Stream size : 3.93 GiB (86%)
Writing library : x265 2.9+8-27d8424c799d:[Windows][MSVC 1915][64 bit] 10bit
Encoding settings : cpuid=1111039 / frame-threads=2 / numa-pools=4 / wpp / no-pmode / no-pme / no-psnr / no-ssim / log-level=2 / input-csp=1 / input-res=1920x1080 / interlace=0 / total-frames=0 / level-idc=0 / high-tier=1 / uhd-bd=0 / ref=4 / no-allow-non-conformance / no-repeat-headers / annexb / no-aud / no-hrd / info / hash=0 / no-temporal-layers / open-gop / min-keyint=24 / keyint=250 / gop-lookahead=0 / bframes=8 / b-adapt=2 / b-pyramid / bframe-bias=0 / rc-lookahead=100 / lookahead-slices=4 / scenecut=40 / radl=0 / no-intra-refresh / ctu=64 / min-cu-size=8 / no-rect / no-amp / max-tu-size=32 / tu-inter-depth=2 / tu-intra-depth=2 / limit-tu=4 / rdoq-level=2 / dynamic-rd=0.00 / no-ssim-rd / signhide / no-tskip / nr-intra=0 / nr-inter=0 / no-constrained-intra / no-strong-intra-smoothing / max-merge=3 / limit-refs=2 / limit-modes / me=3 / subme=5 / merange=57 / temporal-mvp / weightp / weightb / no-analyze-src-pics / deblock=0:0 / sao / no-sao-non-deblock / rd=6 / no-early-skip / rskip / no-fast-intra / no-tskip-fast / no-cu-lossless / b-intra / no-splitrd-skip / rdpenalty=0 / psy-rd=1.30 / psy-rdoq=2.00 / no-rd-refine / no-lossless / cbqpoffs=0 / crqpoffs=0 / rc=crf / crf=17.0 / qcomp=0.60 / qpstep=4 / stats-write=0 / stats-read=0 / ipratio=1.40 / pbratio=1.30 / aq-mode=2 / aq-strength=1.10 / cutree / zone-count=0 / no-strict-cbr / qg-size=32 / no-rc-grain / qpmax=69 / qpmin=0 / no-const-vbv / sar=1 / overscan=0 / videoformat=5 / range=0 / colorprim=2 / transfer=2 / colormatrix=2 / chromaloc=0 / display-window=0 / max-cll=0,0 / min-luma=0 / max-luma=1023 / log2-max-poc-lsb=8 / vui-timing-info / vui-hrd-info / slices=1 / no-opt-qp-pps / no-opt-ref-list-length-pps / no-multi-pass-opt-rps / scenecut-bias=0.05 / no-opt-cu-delta-qp / no-aq-motion / no-hdr / no-hdr-opt / no-dhdr10-opt / no-idr-recovery-sei / analysis-reuse-level=5 / scale-factor=0 / refine-intra=0 / refine-inter=0 / refine-mv=0 / no-limit-sao / ctu-info=0 / no-lowpass-dct / refine-mv-type=0 / copy-pic=1 / max-ausize-factor=1.0 / no-dynamic-refine / no-single-sei
Language : English
Default : Yes
Forced : No

Audio #1
ID : 2
Format : AC-3
Format/Info : Audio Coding 3
Commercial name : Dolby Digital
Codec ID : A_AC3
Duration : 1 h 41 min
Bit rate mode : Constant
Bit rate : 448 kb/s
Channel(s) : 6 channels
Channel layout : L R C LFE Ls Rs
Sampling rate : 48.0 kHz
Frame rate : 31.250 FPS (1536 SPF)
Bit depth : 16 bits
Compression mode : Lossy
Stream size : 327 MiB (7%)
Language : English
Service kind : Complete Main
Default : Yes
Forced : No

Audio #2
ID : 3
Format : AC-3
Format/Info : Audio Coding 3
Commercial name : Dolby Digital
Codec ID : A_AC3
Duration : 1 h 41 min
Bit rate mode : Constant
Bit rate : 448 kb/s
Channel(s) : 6 channels
Channel layout : L R C LFE Ls Rs
Sampling rate : 48.0 kHz
Frame rate : 31.250 FPS (1536 SPF)
Bit depth : 16 bits
Compression mode : Lossy
Stream size : 327 MiB (7%)
Language : Japanese
Service kind : Complete Main
Default : No
Forced : No

Text #1
ID : 4
Format : UTF-8
Codec ID : S_TEXT/UTF8
Codec ID/Info : UTF-8 Plain Text
Duration : 1 h 35 min
Bit rate : 50 b/s
Count of elements : 1035
Stream size : 35.0 KiB (0%)
Title : SubRip/SRT
Language : English
Default : No
Forced : No

Text #2
ID : 5
Format : UTF-8
Codec ID : S_TEXT/UTF8
Codec ID/Info : UTF-8 Plain Text
Duration : 1 h 31 min
Bit rate : 0 b/s
Count of elements : 6
Stream size : 95.0 Bytes (0%)
Title : SubRip/SRT
Language : English
Default : No
Forced : No

Text #3
ID : 6
Format : PGS
Codec ID : S_HDMV/PGS
Codec ID/Info : Picture based subtitle format used on BDs/HD-DVDs
Duration : 1 h 40 min
Bit rate : 30.5 kb/s
Count of elements : 2072
Stream size : 22.0 MiB (0%)
Title : HDMV PGS
Language : English
Default : No
Forced : No

Text #4
ID : 7
Format : PGS
Codec ID : S_HDMV/PGS
Codec ID/Info : Picture based subtitle format used on BDs/HD-DVDs
Duration : 1 h 40 min
Bit rate : 90 b/s
Count of elements : 16
Stream size : 66.3 KiB (0%)
Title : HDMV PGS
Language : English
Default : Yes
Forced : No

Source Information



Unique ID : 50410609143995272821961080023988700054 (0x25ECBAEC317544929621FC998F460396)
Complete name : Dragon.Ball.Super.Broly.2018.JAPANESE.1080p.BluRay.REMUX.AVC.DTS-HD.MA.TrueHD.5.1-FGT.mkv
Format : Matroska
Format version : Version 4
File size : 32.6 GiB
Duration : 1 h 41 min
Overall bit rate mode : Variable
Overall bit rate : 46.1 Mb/s
Movie name : Dragon.Ball.Super.Broly.2018.JAPANESE.1080p.BluRay.REMUX.AVC.DTS-HD.MA.TrueHD.5.1-FGT
Encoded date : UTC 2019-04-14 13:50:22
Writing application : mkvmerge v32.0.0 ('Astral Progressions') 64-bit
Writing library : libebml v1.3.7 + libmatroska v1.5.0
Cover : Yes
Attachments : cover_land.jpg / small_cover.jpg / small_cover_land.jpg / cover.jpg

Video
ID : 1
Format : AVC
Format/Info : Advanced Video Codec
Format profile : [email protected]
Format settings : CABAC / 4 Ref Frames
Format settings, CABAC : Yes
Format settings, RefFrames : 4 frames
Codec ID : V_MPEG4/ISO/AVC
Duration : 1 h 41 min
Bit rate mode : Variable
Bit rate : 33.8 Mb/s
Maximum bit rate : 38.5 Mb/s
Width : 1 920 pixels
Height : 1 080 pixels
Display aspect ratio : 16:9
Frame rate mode : Constant
Frame rate : 24.000 FPS
Color space : YUV
Chroma subsampling : 4:2:0
Bit depth : 8 bits
Scan type : Progressive
Bits/(Pixel*Frame) : 0.679
Stream size : 23.9 GiB (73%)
Title : Dragon.Ball.Super.Broly.2018.JAPANESE.1080p.BluRay.REMUX.AVC.DTS-HD.MA.TrueHD.5.1-FGT
Language : English
Default : No
Forced : No

.........................................................................................................................................


We have no issue with individuals posting or re-uploading our torrents on a platform we aren't on. However, if this is something you'd like to do, please do so in a 'as-is' format. We ask that you do not create a new torrent, include all descriptions you see above including the SEV logo, tags, notes and screenshots. If you'd like to become a permanent poster on a website we don't post to, feel free to get in contact with a Sublime Encoded Video member.



We are recruiting/training new members for SEV & seedbox providers as well as people to help out with subtitles.
As you already know, we deliver quality, so you know the standard.
If you're interested, feel free to contact any of the team members.

Files:

Dragon Ball Super Broly (2018) 1080p BDRip x265 AC3 5.1 Goki [SEV]
  • Dragon Ball Super Broly (2018) 1080p BDRip x265 AC3 5.1 Goki [SEV].mkv (4.6 GB)
  • Dragon Ball Super Broly (2018) 1080p BDRip x265 AC3 5.1 Goki [SEV].nfo (9.4 KB)
  • Dragon Ball Super Broly (2018) 1080p BDRip x265 AC3 5.1 Goki [SEV]-clearart.png (877.8 KB)
  • Dragon Ball Super Broly (2018) 1080p BDRip x265 AC3 5.1 Goki [SEV]-clearlogo.png (197.9 KB)
  • Dragon Ball Super Broly (2018) 1080p BDRip x265 AC3 5.1 Goki [SEV]-fanart.jpg (979.1 KB)
  • Dragon Ball Super Broly (2018) 1080p BDRip x265 AC3 5.1 Goki [SEV]-logo.png (197.9 KB)
  • Dragon Ball Super Broly (2018) 1080p BDRip x265 AC3 5.1 Goki [SEV]-poster.jpg (94.2 KB)

There are currently no comments. Feel free to leave one :)

Code:

  • udp://tracker.coppersurfer.tk:6969/announce
  • udp://tracker.opentrackr.org:1337/announce
  • udp://tracker.torrent.eu.org:451/announce
  • udp://tracker.internetwarriors.net:1337/announce
  • //tracker.opentrackr.org:1337/announce
  • udp://denis.stalker.upeer.me:6969/announce
  • udp://tracker.coppersurfer.tk:6969
  • udp://tracker.internetwarriors.net:1337
  • udp://9.rarbg.me:2720/announce
  • udp://explodie.org:6969/announce
  • //tracker3.itzmx.com:6961/announce
  • udp://tracker.cyberia.is:6969/announce
  • udp://thetracker.org/announce
  • udp://open.demonii.si:1337/announce
DOWNLOAD Torrent