Loading...

[RyRo] Inazuma Eleven Orion no Kokuin - 27v1 (720p) [605CBB0F]

  • Category Anime
  • Type Subbed
  • Language English
  • Total size 419.7 MB
  • Uploaded By EroRambos
  • Downloads 17
  • Last checked 4 months ago
  • Date uploaded 4 months ago
  • Seeders 0
  • Leechers 0

Infohash : CCA5F65EA9F4B56963DB6CC5C99654A6CE8882FC

Quote:

General
Unique ID                   : 247058622616499017446880249629431467972 (0xB9DDC28AE0E6F44497C74B1BC7C68FC4)
Complete name               : [RyRo]_Inazuma_Eleven_Orion_no_Kokuin_-_27v1_(720p)_[605CBB0F].mkv
Format                      : Matroska
Format version              : Version 4
File size                   : 420 MiB
Duration                    : 22 min 54 s
Overall bit rate            : 2 560 kb/s
Encoded date                : UTC 2019-05-08 02:08:57
Writing application         : mkvmerge v33.1.0 ('Primrose') 64-bit
Writing library             : libebml v1.3.7 + libmatroska v1.5.0
Attachments                 : Candarabolditalic.ttf / Candaraitalic.ttf / Dfheic.TTC / Negatori.ttf / SWEETASCANDY.TTF / BRITANIC.TTF / CANDARA.ttf / Candarab.ttf / CandaraBOLD.ttf

Video
ID                          : 1
Format                      : AVC
Format/Info                 : Advanced Video Codec
Format profile              : [email protected]
Format settings             : CABAC / 5 Ref Frames
Format settings, CABAC      : Yes
Format settings, ReFrames   : 5 frames
Codec ID                    : V_MPEG4/ISO/AVC
Duration                    : 22 min 54 s
Bit rate                    : 2 344 kb/s
Width                       : 1 280 pixels
Height                      : 720 pixels
Display aspect ratio        : 16:9
Frame rate mode             : Constant
Frame rate                  : 23.976 (24000/1001) FPS
Color space                 : YUV
Chroma subsampling          : 4:2:0
Bit depth                   : 8 bits
Scan type                   : Progressive
Bits/(Pixel*Frame)          : 0.106
Stream size                 : 384 MiB (92%)
Writing library             : x264 core 146 r2538 121396c
Encoding settings           : cabac=1 / ref=5 / deblock=1:-3:-3 / analyse=0x3:0x133 / me=umh / subme=10 / psy=1 / psy_rd=1.00:0.00 / mixed_ref=1 / me_range=32 / chroma_me=1 / trellis=2 / 8x8dct=1 / cqm=0 / deadzone=21,11 / fast_pskip=0 / chroma_qp_offset=-2 / threads=3 / lookahead_threads=1 / sliced_threads=0 / nr=0 / decimate=0 / interlaced=0 / bluray_compat=0 / constrained_intra=0 / bframes=5 / b_pyramid=2 / b_adapt=2 / b_bias=0 / direct=1 / weightb=1 / open_gop=0 / weightp=0 / keyint=240 / keyint_min=23 / scenecut=40 / intra_refresh=0 / rc_lookahead=40 / rc=crf / mbtree=1 / crf=20.5 / qcomp=0.60 / qpmin=0 / qpmax=69 / qpstep=4 / ip_ratio=1.40 / aq=1:1.00
Default                     : Yes
Forced                      : No

Audio
ID                          : 2
Format                      : AAC LC
Format/Info                 : Advanced Audio Codec Low Complexity
Codec ID                    : A_AAC-2
Duration                    : 22 min 54 s
Bit rate                    : 192 kb/s
Channel(s)                  : 2 channels
Channel layout              : L R
Sampling rate               : 48.0 kHz
Frame rate                  : 46.875 FPS (1024 SPF)
Compression mode            : Lossy
Delay relative to video     : -83 ms
Stream size                 : 31.5 MiB (7%)
Language                    : Japanese
Default                     : Yes
Forced                      : No

Text
ID                          : 3
Format                      : ASS
Codec ID                    : S_TEXT/ASS
Codec ID/Info               : Advanced Sub Station Alpha
Duration                    : 22 min 50 s
Bit rate                    : 164 b/s
Count of elements           : 454
Compression mode            : Lossless
Stream size                 : 27.5 KiB (0%)
Language                    : English
Default                     : Yes
Forced                      : No








Files:

  • [RyRo]_Inazuma_Eleven_Orion_no_Kokuin_-_27v1_(720p)_[605CBB0F].mkv (419.7 MB)

There are currently no comments. Feel free to leave one :)

Code:

  • //nyaa.tracker.wf:7777/announce
  • udp://open.stealth.si:80/announce
  • udp://tracker.opentrackr.org:1337/announce
  • udp://tracker.coppersurfer.tk:6969/announce
  • udp://exodus.desync.com:6969/announce
DOWNLOAD Torrent
X
Attention! Use a VPN when Accessing Free Content !
Your IP address is - Country:
Your Internet provider Tracks your Activity! Hide your IP ADDRESS with a VPN!
Bonus: Get Lag-Free Streams & No popups with any VPN Purchased !

Download Here