Loading...

Modern.Family.S10E22.A.Year.of.Birthdays.1080p.AMZN.WEB-DL.DDP5.1...

  • Category TV
  • Type HD
  • Language English
  • Total size 1.6 GB
  • Uploaded By lumi265
  • Downloads 31
  • Last checked 1 month ago
  • Date uploaded 1 month ago
  • Seeders 3
  • Leechers 0
80%
May 9, 2019, 3:00 am

Modern Family

As the birth of Haley and Dylan’s twins approaches we take a look back at how each family member celebrated their birthdays this past year.

Infohash : 831E5A7EDCA94533567FC8932F68DCC96DE55E5C

Just a test. Dont expect more of this.
Ty

Code:


Format : Matroska
Format version : Version 4 / Version 2
File size : 1.56 GiB
Duration : 21mn 27s
Overall bit rate : 10.4 Mbps
Encoded date : UTC 2019-05-09 14:43:59
Writing application : mkvmerge v19.0.0 ('Brave Captain') 64-bit
Writing library : libebml v1.3.5 + libmatroska v1.4.8
DURATION : 00:21:17.581000000
NUMBER_OF_FRAMES : 616
NUMBER_OF_BYTES : 18231
_STATISTICS_WRITING_APP : mkvmerge v19.0.0 ('Brave Captain') 64-bit
_STATISTICS_WRITING_DATE_UTC : 2019-05-09 14:43:59
_STATISTICS_TAGS : BPS DURATION NUMBER_OF_FRAMES NUMBER_OF_BYTES

Video
ID : 1
Format : AVC
Format/Info : Advanced Video Codec
Format profile : [email protected]
Format settings, CABAC : Yes
Format settings, ReFrames : 4 frames
Codec ID : V_MPEG4/ISO/AVC
Duration : 21mn 27s
Bit rate mode : Constant
Bit rate : 10 000 Kbps
Width : 1 920 pixels
Height : 1 080 pixels
Display aspect ratio : 16:9
Frame rate mode : Constant
Frame rate : 23.976 fps
Color space : YUV
Chroma subsampling : 4:2:0
Bit depth : 8 bits
Scan type : Progressive
Bits/(Pixel*Frame) : 0.201
Stream size : 1.43 GiB (92%)
Default : Yes
Forced : No
Color primaries : BT.709
Transfer characteristics : BT.709
Matrix coefficients : BT.709

Audio
ID : 2
Format : E-AC-3
Format/Info : Audio Coding 3
Format settings, Endianness : Big
Codec ID : A_EAC3
Duration : 21mn 27s
Bit rate mode : Constant
Bit rate : 640 Kbps
Channel(s) : 6 channels
Channel positions : Front: L C R, Side: L R, LFE
Sampling rate : 48.0 KHz
Compression mode : Lossy
Stream size : 98.2 MiB (6%)
Language : English
Default : Yes
Forced : No

Text #1
ID : 3
Format : UTF-8
Codec ID : S_TEXT/UTF8
Codec ID/Info : UTF-8 Plain Text
Language : English
Default : No
Forced : No

Text #2
ID : 4
Format : UTF-8
Codec ID : S_TEXT/UTF8
Codec ID/Info : UTF-8 Plain Text
Title : SDH
Language : English
Default : No
Forced : No

Files:

  • Modern.Family.S10E22.A.Year.of.Birthdays.1080p.AMZN.WEB-DL.DDP5.1.H.264-NTb.mkv (1.6 GB)

There are currently no comments. Feel free to leave one :)

Code:

  • udp://tracker.leechers-paradise.org:6969/announce
  • udp://tracker.coppersurfer.tk:6969/announce
  • udp://tracker.open-internet.nl:6969/announce
  • udp://tracker.internetwarriors.net:1337/announce
  • udp://open.demonii.si:1337/announce
  • udp://9.rarbg.to:2710/announce
DOWNLOAD Torrent