Loading...

[Arukoru] Dragon Ball Super Part 2 [1080p x265 10bit BD Dual Audi...

  • Category Anime
  • Type Dual Audio
  • Language English
  • Total size 8.9 GB
  • Uploaded By EroRambos
  • Downloads 109
  • Last checked 4 months ago
  • Date uploaded 4 months ago
  • Seeders 2
  • Leechers 4

Infohash : 4A93C90F617CB5076DA5D999F0643C9EF84CC087







Format : Matroska
Format version : Version 4
File size : 723 MiB
Duration : 23 min 7 s
Overall bit rate : 4 374 kb/s
Movie name : Dragon Ball Super P2 D1
Encoded date : UTC 2019-02-02 19:02:44
Writing application : mkvmerge v30.1.0 (‘Forever And More’) 64-bit
Writing library : libebml v1.3.6 + libmatroska v1.4.9 / Lavf58.20.100

Video
ID : 1
Format : HEVC
Format/Info : High Efficiency Video Coding
Format profile : Main [email protected]@Main
Codec ID : V_MPEGH/ISO/HEVC
Duration : 23 min 7 s
Bit rate : 3 687 kb/s
Width : 1 920 pixels
Height : 1 080 pixels
Display aspect ratio : 16:9
Frame rate mode : Constant
Frame rate : 23.976 (24000/1001) FPS
Color space : YUV
Chroma subsampling : 4:2:0
Bit depth : 10 bits
Bits/(Pixel*Frame) : 0.074
Stream size : 610 MiB (84%)
Writing library : x265 2.9:[Windows][GCC 7.1.0][64 bit] 10bit
Encoding settings : cpuid=1111039 / frame-threads=3 / numa-pools=12 / wpp / no-pmode / no-pme / no-psnr / no-ssim / log-level=2 / input-csp=1 / input-res=1920x1080 / interlace=0 / total-frames=0 / level-idc=0 / high-tier=1 / uhd-bd=0 / ref=4 / no-allow-non-conformance / no-repeat-headers / annexb / no-aud / no-hrd / info / hash=0 / no-temporal-layers / open-gop / min-keyint=24 / keyint=240 / gop-lookahead=0 / bframes=8 / b-adapt=2 / b-pyramid / bframe-bias=0 / rc-lookahead=30 / lookahead-slices=4 / scenecut=40 / radl=0 / no-intra-refresh / ctu=64 / min-cu-size=8 / rect / amp / max-tu-size=32 / tu-inter-depth=2 / tu-intra-depth=2 / limit-tu=4 / rdoq-level=2 / dynamic-rd=0.00 / no-ssim-rd / signhide / no-tskip / nr-intra=0 / nr-inter=0 / no-constrained-intra / strong-intra-smoothing / max-merge=3 / limit-refs=2 / limit-modes / me=3 / subme=3 / merange=57 / temporal-mvp / weightp / weightb / no-analyze-src-pics / deblock=0:0 / sao / no-sao-non-deblock / rd=6 / no-early-skip / rskip / no-fast-intra / no-tskip-fast / no-cu-lossless / b-intra / no-splitrd-skip / rdpenalty=0 / psy-rd=2.00 / psy-rdoq=1.00 / no-rd-refine / no-lossless / cbqpoffs=0 / crqpoffs=0 / rc=crf / crf=19.0 / qcomp=0.60 / qpstep=4 / stats-write=0 / stats-read=0 / ipratio=1.40 / pbratio=1.30 / aq-mode=1 / aq-strength=1.00 / cutree / zone-count=0 / no-strict-cbr / qg-size=32 / no-rc-grain / qpmax=69 / qpmin=0 / no-const-vbv / sar=1 / overscan=0 / videoformat=5 / range=0 / colorprim=1 / transfer=1 / colormatrix=1 / chromaloc=0 / display-window=0 / max-cll=0,0 / min-luma=0 / max-luma=1023 / log2-max-poc-lsb=8 / vui-timing-info / vui-hrd-info / slices=1 / no-opt-qp-pps / no-opt-ref-list-length-pps / no-multi-pass-opt-rps / scenecut-bias=0.05 / no-opt-cu-delta-qp / no-aq-motion / no-hdr / no-hdr-opt / no-dhdr10-opt / no-idr-recovery-sei / analysis-reuse-level=5 / scale-factor=0 / refine-intra=0 / refine-inter=0 / refine-mv=0 / no-limit-sao / ctu-info=0 / no-lowpass-dct / refine-mv-type=0 / copy-pic=1 / max-ausize-factor=1.0 / no-dynamic-refine / no-single-sei
Default : Yes
Forced : No
Color range : Limited
Color primaries : BT.709
Transfer characteristics : BT.709
Matrix coefficients : BT.709

Audio #1
ID : 3
Format : AAC LC
Format/Info : Advanced Audio Codec Low Complexity
Codec ID : A_AAC-2
Duration : 23 min 7 s
Bit rate : 481 kb/s
Channel(s) : 6 channels
Channel layout : C L R Ls Rs LFE
Sampling rate : 48.0 kHz
Frame rate : 46.875 FPS (1024 SPF)
Compression mode : Lossy
Delay relative to video : 9 ms
Stream size : 79.5 MiB (11%)
Language : English
Default : Yes
Forced : No

Audio #2
ID : 4
Format : AAC LC
Format/Info : Advanced Audio Codec Low Complexity
Codec ID : A_AAC-2
Duration : 23 min 7 s
Bit rate : 192 kb/s
Channel(s) : 2 channels
Channel layout : L R
Sampling rate : 48.0 kHz
Frame rate : 46.875 FPS (1024 SPF)
Compression mode : Lossy
Delay relative to video : 9 ms
Stream size : 32.1 MiB (4%)
Language : Japanese
Default : No
Forced : No

Text
ID : 2
Format : PGS
Muxing mode : zlib
Codec ID : S_HDMV/PGS
Codec ID/Info : Picture based subtitle format used on BDs/HD-DVDs
Duration : 22 min 53 s
Bit rate : 30.6 kb/s
Count of elements : 462
Stream size : 5.01 MiB (1%)
Language : English
Default : No
Forced : No

Menu
00:00:00.000 : :Chapter 1
00:01:26.086 : :Chapter 2
00:10:44.144 : :Chapter 3
00:21:36.212 : :Chapter 4
00:22:36.230 : :Chapter 5

Source:
USBD

Files:

[Arukoru] Dragon Ball Super Part 2 [1080p x265 10bit BD Dual Audio AAC]
  • Episode 19 - Despair Rises! The Emperor of Evil, Frieza, Resurrected!.mkv (983.0 MB)
  • Episode 15 - Make a Miracle, Satan the Hero! A Challenge from Outer Space.mkv (617.1 MB)
  • Episode 16 - Vegeta Becomes an Apprentice! Winning Whis Over!.mkv (628.9 MB)
  • Episode 17 - Pan Is Born! And Goku Goes on a Training Trip.mkv (585.5 MB)
  • Episode 18 - I`m Here, Too! Training Begins on Beerus` Planet!.mkv (571.6 MB)
  • Episode 14 - This Is Every Ounce of Power I Have! The Battle of Gods` Conclusion!.mkv (723.4 MB)
  • Episode 20 - Jaco`s Warning! Frieza and His 1000 Troops Approach.mkv (616.7 MB)
  • Episode 21 - The Start of Revenge! The Malice of Frieza Army Strikes Gohan!.mkv (703.8 MB)
  • Episode 22 - Change! An Unexpected Return! His Name Is Ginyu!!.mkv (859.4 MB)
  • Episode 23 - The Earth! Gohan! Absolute Peril! Hurry and Get Here, Son Goku!!.mkv (708.3 MB)
  • Episode 24 - Clash! Frieza vs Son Goku - This Is the Result of My Training!.mkv (650.5 MB)
  • Episode 25 - An All-Out Battle! The Revenge of Golden Frieza.mkv (679.2 MB)
  • Episode 26 - A Glint of Hope Shines Through in a Crisis! Time to Fight Back, Son Goku!.mkv (828.2 MB)

There are currently no comments. Feel free to leave one :)

Code:

  • //nyaa.tracker.wf:7777/announce
  • udp://open.stealth.si:80/announce
  • udp://tracker.opentrackr.org:1337/announce
  • udp://tracker.coppersurfer.tk:6969/announce
  • udp://exodus.desync.com:6969/announce
DOWNLOAD Torrent
X
Attention! Use a VPN when Accessing Free Content !
Your IP address is - Country:
Your Internet provider Tracks your Activity! Hide your IP ADDRESS with a VPN!
Bonus: Get Lag-Free Streams & No popups with any VPN Purchased !

Download Here