Loading...

Billions.S04E09.1080p.WEB.x265.6CH.ReEnc-LUMI

  • Category TV
  • Type HEVC/x265
  • Language English
  • Total size 837.7 MB
  • Uploaded By lumi265
  • Downloads 888
  • Last checked 4 months ago
  • Date uploaded 4 months ago
  • Seeders 23
  • Leechers 4
00%
May 13, 2019, 3:00 am

Billions

Chuck makes a dramatic move to help Wendy and Senior. Taylor goes after Axe by trying to sabotage someone close to him. Axe contends with difficulties at Axe Capital. Chuck reveals his priorities.

Infohash : 1BBE6F932EB51314CC3CE0B9C6D22C753C0F5F64

If you like the upload, please leave a comment , and any other feedback / requests are most welcome!
x265 encodes of the same size have much more detail (twice) than x264, try it for yourself once!
Please help me by seeding for as long as possible, it doesn't hurt you and helps others download!

SEED TILL YOU BLEED

Please donate:

Code:


Bitcoin: 3HKCmf9e2oTr9KvJcXCDRaCjg1AxioL1UE
BCH: qqgvak0004cj9g9p2fqcz0s8q8384s8mecq88swgpe
ETH: 0x865fEC58a2d98f44d7253A1d5cE18b40fb124462
LTC: MLogKCRBvwoeXe5z7wej8V93sQi1ue9uTr
ZEC: t1K9grYE1ZkQF9ftmowo3ejJZadpxKg9zn9



Screens:





Source: billions.s04e09.1080p.web.h264-memento (thanks)

Code:


Format : MPEG-4
Format profile : Base Media / Version 2
Codec ID : mp42 (isom/iso2/mp41)
File size : 838 MiB
Duration : 58 min 11 s
Overall bit rate mode : Variable
Overall bit rate : 2 012 kb/s
Writing application : HandBrake 1.2.2 2019022300

Video
ID : 1
Format : HEVC
Format/Info : High Efficiency Video Coding
Format profile : [email protected]@Main
Codec ID : hvc1
Codec ID/Info : High Efficiency Video Coding
Duration : 58 min 11 s
Bit rate : 1 813 kb/s
Width : 1 920 pixels
Height : 1 080 pixels
Display aspect ratio : 16:9
Frame rate mode : Variable
Frame rate : 23.976 (24000/1001) FPS
Minimum frame rate : 23.974 FPS
Maximum frame rate : 23.981 FPS
Color space : YUV
Chroma subsampling : 4:2:0
Bit depth : 8 bits
Bits/(Pixel*Frame) : 0.036
Stream size : 755 MiB (90%)
Writing library : x265 2.9:[Windows][GCC 8.2.0][64 bit] 8bit+10bit+12bit

Audio
ID : 2
Format : AAC LC
Format/Info : Advanced Audio Codec Low Complexity
Codec ID : mp4a-40-2
Duration : 58 min 11 s
Bit rate mode : Constant
Bit rate : 192 kb/s
Channel(s) : 6 channels
Channel layout : C L R Ls Rs LFE
Sampling rate : 48.0 kHz
Frame rate : 46.875 FPS (1024 SPF)
Compression mode : Lossy
Stream size : 80.1 MiB (10%)
Title : Surround
Language : English

Text
ID : 3
Format : Timed Text
Muxing mode : sbtl
Codec ID : tx3g
Duration : 57 min 35 s
Bit rate mode : Variable
Bit rate : 104 b/s
Stream size : 43.7 KiB (0%)
Language : English
Default : Yes



Files:

  • Billions.S04E09.1080p.WEB.x265.6CH.ReEnc-LUMI.mp4 (837.7 MB)

There are currently no comments. Feel free to leave one :)

Code:

  • udp://tracker.leechers-paradise.org:6969/announce
  • udp://tracker.coppersurfer.tk:6969/announce
  • udp://tracker.open-internet.nl:6969/announce
  • udp://tracker.internetwarriors.net:1337/announce
  • udp://open.demonii.si:1337/announce
  • udp://9.rarbg.to:2710/announce
DOWNLOAD Torrent
X
Attention! Use a VPN when Accessing Free Content !
Your IP address is - Country:
Your Internet provider Tracks your Activity! Hide your IP ADDRESS with a VPN!
Bonus: Get Lag-Free Streams & No popups with any VPN Purchased !

Download Here