Loading...

The Favourite - La favorita (2018).720p.H264.italian.english.Ac3-...

  • Category Movies
  • Type HD
  • Language English
  • Total size 2.2 GB
  • Uploaded By robbyrs
  • Downloads 200
  • Last checked 5 days ago
  • Date uploaded 1 week ago
  • Seeders 95
  • Leechers 39

The Favourite

DramaHistoryComedy

In 18th century England, the close relationship between Queen Anne and Sarah Churchill is threatened by the arrival of Sarah's cousin, Abigail Hill, resulting in a bitter rivalry between the two cousins to be the Queen's favourite.

Infohash : DB47761C541D3CF9D4A88FD0FB4BBA04A63EE1E9

The Favourite - La favorita (2018).720p.H264.italian.english.Ac3-5.1.sub.ita.eng-MIRCrew


NO FOUND ONLY ORIGINAL RELEASE

My release is always in double track audio italian and Original audio
for select it use VLC or dvd player home
not use wmp

La favorita - The Favourite (2018)

Quality MIRCrew on HD 720p da 2,2 gb










GENERE: Drammatico, Storico
ANNO: 2018
REGIA: Yorgos Lanthimos

PAESE: Irlanda, Gran Bretagna, USA
DURATA: 119 Min



Olivia Colman, Emma Stone, Rachel Weisz, Nicholas Hoult, Joe Alwyn, Mark Gatiss, Jenny Rainsford, James Smith, Basil Eidenbenz



L'Inghilterra è in guerra contro la Francia. Ciò nonostante, le corse delle anatre e il consumo di ananas vanno per la maggiore. Una fragile regina Anna (Olivia Colman) siede sul trono mentre l'amica intima Lady Sarah Churchill (Rachel Weisz) governa il paese in sua vece e, al tempo stesso, si prende cura della cattiva salute e del temperamento volubile della sovrana.



In early 18th century England, a frail Queen Anne occupies the throne and her close friend, Lady Sarah, governs the country in her stead. When a new servant, Abigail, arrives, her charm endears her to Sarah.





General
Unique ID : 174271494436398170194925571186857647865 (0x831B780DAF5F64929B65BB4ACD049EF9)
Complete name : La favorita - The Favourite (2018).720p.h264.ita.eng.sub.ita.eng-MIRCrew\La favorita - The Favourite (2018).720p.h264.ita.eng.sub.ita.eng-MIRCrew.mkv
Format : Matroska
Format version : Version 2
File size : 2.20 GiB
Duration : 1h 59mn
Overall bit rate : 2 634 Kbps
Movie name : MIRCrew
Encoded date : UTC 2019-05-12 09:19:50
Writing application : mkvmerge v5.8.0 ('No Sleep / Pillow') built on Sep 2 2012 15:37:04
Writing library : libebml v1.2.3 + libmatroska v1.3.0

Video
ID : 1
Format : AVC
Format/Info : Advanced Video Codec
Format profile : [email protected]
Format settings, CABAC : Yes
Format settings, ReFrames : 4 frames
Codec ID : V_MPEG4/ISO/AVC
Duration : 1h 59mn
Bit rate : 1 750 Kbps
Nominal bit rate : 1 900 Kbps
Width : 1 280 pixels
Height : 704 pixels
Display aspect ratio : 16:9
Frame rate : 23.976 fps
Color space : YUV
Chroma subsampling : 4:2:0
Bit depth : 8 bits
Scan type : Progressive
Bits/(Pixel*Frame) : 0.081
Stream size : 1.46 GiB (66%)
Title : MIRCrew
Writing library : x264 core 142 r2479 dd79a61
Encoding settings : cabac=1 / ref=1 / deblock=1:0:0 / analyse=0x1:0x111 / me=hex / subme=2 / psy=1 / psy_rd=1.00:0.00 / mixed_ref=0 / me_range=16 / chroma_me=1 / trellis=0 / 8x8dct=0 / cqm=0 / deadzone=21,11 / fast_pskip=1 / chroma_qp_offset=0 / threads=9 / lookahead_threads=3 / sliced_threads=0 / nr=0 / decimate=1 / interlaced=0 / bluray_compat=0 / constrained_intra=0 / bframes=3 / b_pyramid=2 / b_adapt=1 / b_bias=0 / direct=1 / weightb=1 / open_gop=0 / weightp=1 / keyint=240 / keyint_min=24 / scenecut=40 / intra_refresh=0 / rc_lookahead=10 / rc=abr / mbtree=1 / bitrate=1900 / ratetol=1.0 / qcomp=0.60 / qpmin=0 / qpmax=69 / qpstep=4 / vbv_maxrate=50000 / vbv_bufsize=62500 / nal_hrd=none / filler=0 / ip_ratio=1.40 / aq=1:1.00
Language : Italian
Default : Yes
Forced : No
Color primaries : BT.709-5, BT.1361, IEC 61966-2-4, SMPTE RP177
Transfer characteristics : BT.709-5, BT.1361
Matrix coefficients : BT.709-5, BT.1361, IEC 61966-2-4 709, SMPTE RP177

Audio #1
ID : 2
Format : AC-3
Format/Info : Audio Coding 3
Mode extension : CM (complete main)
Codec ID : A_AC3
Duration : 1h 59mn
Bit rate mode : Constant
Bit rate : 448 Kbps
Channel(s) : 6 channels
Channel positions : Front: L C R, Side: L R, LFE
Sampling rate : 48.0 KHz
Bit depth : 16 bits
Compression mode : Lossy
Delay relative to video : -5ms
Stream size : 383 MiB (17%)
Title : Ita Ac3 5.1
Language : Italian
Default : Yes
Forced : No

Audio #2
ID : 3
Format : AC-3
Format/Info : Audio Coding 3
Mode extension : CM (complete main)
Codec ID : A_AC3
Duration : 1h 59mn
Bit rate mode : Constant
Bit rate : 384 Kbps
Channel(s) : 6 channels
Channel positions : Front: L C R, Side: L R, LFE
Sampling rate : 48.0 KHz
Bit depth : 16 bits
Compression mode : Lossy
Delay relative to video : -5ms
Stream size : 328 MiB (15%)
Title : Eng Ac3 5.1
Language : English
Default : No
Forced : No

Menu
00:00:00.000 : :Chapter 1
00:18:36.448 : :Chapter 2
00:40:35.474 : :Chapter 3
00:46:44.259 : :Chapter 4
01:06:23.271 : :Chapter 5
01:15:12.591 : :Chapter 6
01:28:32.599 : :Chapter 7
01:36:55.976 : :Chapter 8





Files:

La favorita - The Favourite (2018).720p.h264.ita.eng.sub.ita.eng-MIRCrew
  • La favorita - The Favourite (2018).720p.h264.ita.eng.sub.ita.eng-MIRCrew.eng.srt (111.7 KB)
  • La favorita - The Favourite (2018).720p.h264.ita.eng.sub.ita.eng-MIRCrew.ita.srt (94.4 KB)
  • La favorita - The Favourite (2018).720p.h264.ita.eng.sub.ita.eng-MIRCrew.mkv (2.2 GB)
  • La favorita - The Favourite (2018).720p.h264.ita.eng.sub.ita.eng-MIRCrew.srt (1.1 KB)

There are currently no comments. Feel free to leave one :)

Code:

  • udp://tracker.coppersurfer.tk:6969/announce
  • udp://tracker.torrent.eu.org:451/announce
  • udp://tracker.pirateparty.gr:6969/announce
  • udp://tracker.opentrackr.org:1337/announce
  • udp://tracker.leechers-paradise.org:6969/announce
  • udp://tracker.eddie4.nl:6969/announce
  • udp://shadowshq.yi.org:6969/announce
  • udp://shadowshq.eddie4.nl:6969/announce
  • udp://inferno.demonoid.pw:3391/announce
  • udp://eddie4.nl:6969/announce
  • udp://9.rarbg.to:2730/announce
  • udp://9.rarbg.com:2710/announce
  • udp://9.rarbg.me:2780/announce
  • udp://62.138.0.158:6969/announce
  • udp://151.80.120.114:2710/announce
DOWNLOAD Torrent