Loading...

Wicked City (1987) 1080p BDRip x265 AAC 5.1 Goki [SEV]

  • Category Anime
  • Type Dual Audio
  • Language English
  • Total size 2.0 GB
  • Uploaded By Goki
  • Downloads 168
  • Last checked 4 months ago
  • Date uploaded 4 months ago
  • Seeders 7
  • Leechers 0

Infohash : 9F7C4121C21D246C9E0230D6B88304036E9B271C



Screenshots







Media Information



Unique ID                                : 166801410827449934072913622285474540524 (0x7D7CC87EFFEF425EED40F26F71772BEC)
Complete name                            : Wicked City (1987) 1080p BDRip x265 AAC 5.1 Goki [SEV].mkv
Format                                   : Matroska
Format version                           : Version 4
File size                                : 2.00 GiB
Duration                                 : 1 h 22 min
Overall bit rate                         : 3 484 kb/s
Movie name                               : Wicked City (1987) 1080p BDRip x265 AAC 5.1 Goki [SEV]
Encoded date                             : UTC 2019-05-13 10:32:27
Writing application                      : mkvmerge v28.2.0 ('The Awakening') 64-bit
Writing library                          : libebml v1.3.6 + libmatroska v1.4.9 / Lavf57.73.100
Writing application                      : Internet Friendly Media Encoder v7.7 ('Prism Ark')
Writing library                          : IFME v7.7 amd64 windows

Video
ID                                       : 1
Format                                   : HEVC
Format/Info                              : High Efficiency Video Coding
Format profile                           : Main [email protected]@Main
Codec ID                                 : V_MPEGH/ISO/HEVC
Duration                                 : 1 h 22 min
Bit rate                                 : 2 585 kb/s
Width                                    : 1 920 pixels
Height                                   : 1 080 pixels
Display aspect ratio                     : 16:9
Frame rate mode                          : Constant
Frame rate                               : 23.976 (24000/1001) FPS
Color space                              : YUV
Chroma subsampling                       : 4:2:0
Bit depth                                : 10 bits
Bits/(Pixel*Frame)                       : 0.052
Stream size                              : 1.49 GiB (74%)
Writing library                          : x265 2.9+8-27d8424c799d:[Windows][MSVC 1915][64 bit] 10bit
Encoding settings                        : cpuid=1111039 / frame-threads=2 / numa-pools=4 / wpp / no-pmode / no-pme / no-psnr / no-ssim / log-level=2 / input-csp=1 / input-res=1920x1080 / interlace=0 / total-frames=0 / level-idc=0 / high-tier=1 / uhd-bd=0 / ref=4 / no-allow-non-conformance / no-repeat-headers / annexb / no-aud / no-hrd / info / hash=0 / no-temporal-layers / open-gop / min-keyint=23 / keyint=250 / gop-lookahead=0 / bframes=8 / b-adapt=2 / b-pyramid / bframe-bias=0 / rc-lookahead=100 / lookahead-slices=4 / scenecut=40 / radl=0 / no-intra-refresh / ctu=64 / min-cu-size=8 / no-rect / no-amp / max-tu-size=32 / tu-inter-depth=2 / tu-intra-depth=2 / limit-tu=4 / rdoq-level=2 / dynamic-rd=0.00 / no-ssim-rd / signhide / no-tskip / nr-intra=0 / nr-inter=0 / no-constrained-intra / no-strong-intra-smoothing / max-merge=3 / limit-refs=2 / limit-modes / me=3 / subme=5 / merange=57 / temporal-mvp / weightp / weightb / no-analyze-src-pics / deblock=0:0 / sao / no-sao-non-deblock / rd=6 / no-early-skip / rskip / no-fast-intra / no-tskip-fast / no-cu-lossless / b-intra / no-splitrd-skip / rdpenalty=0 / psy-rd=1.30 / psy-rdoq=2.00 / no-rd-refine / no-lossless / cbqpoffs=0 / crqpoffs=0 / rc=crf / crf=18.0 / qcomp=0.60 / qpstep=4 / stats-write=0 / stats-read=0 / ipratio=1.40 / pbratio=1.30 / aq-mode=2 / aq-strength=1.10 / cutree / zone-count=0 / no-strict-cbr / qg-size=32 / no-rc-grain / qpmax=69 / qpmin=0 / no-const-vbv / sar=1 / overscan=0 / videoformat=5 / range=0 / colorprim=2 / transfer=2 / colormatrix=2 / chromaloc=0 / display-window=0 / max-cll=0,0 / min-luma=0 / max-luma=1023 / log2-max-poc-lsb=8 / vui-timing-info / vui-hrd-info / slices=1 / no-opt-qp-pps / no-opt-ref-list-length-pps / no-multi-pass-opt-rps / scenecut-bias=0.05 / no-opt-cu-delta-qp / no-aq-motion / no-hdr / no-hdr-opt / no-dhdr10-opt / no-idr-recovery-sei / analysis-reuse-level=5 / scale-factor=0 / refine-intra=0 / refine-inter=0 / refine-mv=0 / no-limit-sao / ctu-info=0 / no-lowpass-dct / refine-mv-type=0 / copy-pic=1 / max-ausize-factor=1.0 / no-dynamic-refine / no-single-sei
Language                                 : English
Default                                  : Yes
Forced                                   : No

Audio #1
ID                                       : 2
Format                                   : AAC LC
Format/Info                              : Advanced Audio Codec Low Complexity
Codec ID                                 : A_AAC-2
Duration                                 : 1 h 22 min
Bit rate                                 : 448 kb/s
Channel(s)                               : 6 channels
Channel layout                           : C L R Ls Rs LFE
Sampling rate                            : 48.0 kHz
Frame rate                               : 46.875 FPS (1024 SPF)
Compression mode                         : Lossy
Delay relative to video                  : 9 ms
Stream size                              : 264 MiB (13%)
Language                                 : English
Default                                  : Yes
Forced                                   : No

Audio #2
ID                                       : 3
Format                                   : AAC LC
Format/Info                              : Advanced Audio Codec Low Complexity
Codec ID                                 : A_AAC-2
Duration                                 : 1 h 22 min
Bit rate                                 : 448 kb/s
Channel(s)                               : 2 channels
Channel layout                           : L R
Sampling rate                            : 48.0 kHz
Frame rate                               : 46.875 FPS (1024 SPF)
Compression mode                         : Lossy
Delay relative to video                  : 9 ms
Stream size                              : 264 MiB (13%)
Language                                 : Japanese
Default                                  : No
Forced                                   : No

Text
ID                                       : 4
Format                                   : UTF-8
Codec ID                                 : S_TEXT/UTF8
Codec ID/Info                            : UTF-8 Plain Text
Duration                                 : 1 h 19 min
Bit rate                                 : 44 b/s
Count of elements                        : 712
Stream size                              : 25.9 KiB (0%)
Language                                 : English
Default                                  : No
Forced                                   : No

Menu
00:00:00.000                             : ja:Chapter 01
00:02:39.492                             : ja:Chapter 02
00:06:39.482                             : ja:Chapter 03
00:11:34.485                             : ja:Chapter 04
00:16:27.277                             : ja:Chapter 05
00:21:24.741                             : ja:Chapter 06
00:26:40.223                             : ja:Chapter 07
00:32:03.046                             : ja:Chapter 08
00:35:24.956                             : ja:Chapter 09
00:39:59.188                             : ja:Chapter 10
00:45:27.349                             : ja:Chapter 11
00:49:12.950                             : ja:Chapter 12
00:55:01.965                             : ja:Chapter 13
00:59:42.829                             : ja:Chapter 14
01:03:58.709                             : ja:Chapter 15
01:07:07.356                             : ja:Chapter 16
01:10:23.844                             : ja:Chapter 17
01:19:20.505                             : ja:Chapter 18


Source Information



Unique ID                                : 195294965521717501688397945908515075263 (0x92EC713495C8B3FA0E185CEFE5BC74BF)
Complete name                            : Wicked City (1987) 1080p BluRay REMUX AVC LPCM 2.0 Dual Audio-ZR-.mkv
Format                                   : Matroska
Format version                           : Version 2
File size                                : 17.0 GiB
Duration                                 : 1 h 22 min
Overall bit rate mode                    : Variable
Overall bit rate                         : 29.7 Mb/s
Encoded date                             : UTC 2019-01-26 20:01:55
Writing application                      : MakeMKV v1.12.0 win(x64-release)
Writing library                          : libmakemkv v1.12.0 (1.3.5/1.4.7) win(x64-release)

Video
ID                                       : 1
ID in the original source medium         : 4113 (0x1011)
Format                                   : AVC
Format/Info                              : Advanced Video Codec
Format profile                           : [email protected]
Format settings                          : CABAC / 4 Ref Frames
Format settings, CABAC                   : Yes
Format settings, RefFrames               : 4 frames
Codec ID                                 : V_MPEG4/ISO/AVC
Duration                                 : 1 h 22 min
Bit rate mode                            : Variable
Bit rate                                 : 24.2 Mb/s
Maximum bit rate                         : 39.0 Mb/s
Width                                    : 1 920 pixels
Height                                   : 1 080 pixels
Display aspect ratio                     : 16:9
Frame rate mode                          : Constant
Frame rate                               : 23.976 (24000/1001) FPS
Color space                              : YUV
Chroma subsampling                       : 4:2:0
Bit depth                                : 8 bits
Scan type                                : Progressive
Bits/(Pixel*Frame)                       : 0.486
Stream size                              : 13.9 GiB (81%)
Language                                 : English
Default                                  : No
Forced                                   : No
Original source medium                   : Blu-ray

Audio #1
ID                                       : 2
ID in the original source medium         : 4352 (0x1100)
Format                                   : PCM
Format settings                          : Little / Signed
Codec ID                                 : A_PCM/INT/LIT
Duration                                 : 1 h 22 min
Bit rate mode                            : Constant
Bit rate                                 : 1 536 kb/s
Channel(s)                               : 2 channels
Sampling rate                            : 48.0 kHz
Frame rate                               : 30.000 FPS (1600 SPF)
Bit depth                                : 16 bits
Stream size                              : 904 MiB (5%)
Title                                    : Stereo
Language                                 : Japanese
Default                                  : Yes
Forced                                   : No
Original source medium                   : Blu-ray

Audio #2
ID                                       : 3
ID in the original source medium         : 4353 (0x1101)
Format                                   : PCM
Format settings                          : Little / Signed
Codec ID                                 : A_PCM/INT/LIT
Duration                                 : 1 h 22 min
Bit rate mode                            : Constant
Bit rate                                 : 1 536 kb/s
Channel(s)                               : 2 channels
Sampling rate                            : 48.0 kHz
Frame rate                               : 30.000 FPS (1600 SPF)
Bit depth                                : 16 bits
Stream size                              : 904 MiB (5%)
Title                                    : Stereo
Language                                 : English
Default                                  : No
Forced                                   : No
Original source medium                   : Blu-ray

Audio #3
ID                                       : 4
ID in the original source medium         : 4354 (0x1102)
Format                                   : DTS XLL
Format/Info                              : Digital Theater Systems
Commercial name                          : DTS-HD Master Audio
Codec ID                                 : A_DTS
Duration                                 : 1 h 22 min
Bit rate mode                            : Variable
Bit rate                                 : 2 419 kb/s
Channel(s)                               : 6 channels
Channel layout                           : C L R Ls Rs LFE
Sampling rate                            : 48.0 kHz
Frame rate                               : 93.750 FPS (512 SPF)
Bit depth                                : 16 bits
Compression mode                         : Lossless
Stream size                              : 1.39 GiB (8%)
Title                                    : Surround 5.1
Language                                 : English
Default                                  : No
Forced                                   : No
Original source medium                   : Blu-ray

Menu
00:00:00.000                             : ja:Chapter 01
00:02:39.492                             : ja:Chapter 02
00:06:39.482                             : ja:Chapter 03
00:11:34.485                             : ja:Chapter 04
00:16:27.277                             : ja:Chapter 05
00:21:24.741                             : ja:Chapter 06
00:26:40.223                             : ja:Chapter 07
00:32:03.046                             : ja:Chapter 08
00:35:24.956                             : ja:Chapter 09
00:39:59.188                             : ja:Chapter 10
00:45:27.349                             : ja:Chapter 11
00:49:12.950                             : ja:Chapter 12
00:55:01.965                             : ja:Chapter 13
00:59:42.829                             : ja:Chapter 14
01:03:58.709                             : ja:Chapter 15
01:07:07.356                             : ja:Chapter 16
01:10:23.844                             : ja:Chapter 17
01:19:20.505                             : ja:Chapter 18


.........................................................................................................................................


We have no issue with individuals posting or re-uploading our torrents on a platform we aren't on. However, if this is something you'd like to do, please do so in a 'as-is' format. We ask that you do not create a new torrent, include all descriptions you see above including the SEV logo, tags, notes and screenshots. If you'd like to become a permanent poster on a website we don't post to, feel free to get in contact with a Sublime Encoded Video member.



We are recruiting/training new members for SEV & seedbox providers as well as people to help out with subtitles.
As you already know, we deliver quality, so you know the standard.
If you're interested, feel free to contact any of the team members.


Files:

Wicked City (1987) 1080p BDRip x265 AAC 5.1 Goki [SEV]
  • Wicked City (1987) 1080p BDRip x265 AAC 5.1 Goki [SEV].mkv (2.0 GB)
  • Wicked City (1987) 1080p BDRip x265 AAC 5.1 Goki [SEV].nfo (4.8 KB)
  • Wicked City (1987) 1080p BDRip x265 AAC 5.1 Goki [SEV]-clearlogo.png (75.1 KB)
  • Wicked City (1987) 1080p BDRip x265 AAC 5.1 Goki [SEV]-disc.png (1.1 MB)
  • Wicked City (1987) 1080p BDRip x265 AAC 5.1 Goki [SEV]-fanart.jpg (137.2 KB)
  • Wicked City (1987) 1080p BDRip x265 AAC 5.1 Goki [SEV]-logo.png (75.1 KB)
  • Wicked City (1987) 1080p BDRip x265 AAC 5.1 Goki [SEV]-poster.jpg (94.4 KB)

There are currently no comments. Feel free to leave one :)

Code:

  • udp://tracker.coppersurfer.tk:6969/announce
  • udp://tracker.opentrackr.org:1337/announce
  • udp://tracker.torrent.eu.org:451/announce
  • udp://tracker.internetwarriors.net:1337/announce
  • //tracker.opentrackr.org:1337/announce
  • udp://denis.stalker.upeer.me:6969/announce
  • udp://tracker.coppersurfer.tk:6969
  • udp://tracker.internetwarriors.net:1337
  • udp://9.rarbg.me:2720/announce
  • udp://explodie.org:6969/announce
  • //tracker3.itzmx.com:6961/announce
  • udp://tracker.cyberia.is:6969/announce
  • udp://thetracker.org/announce
  • udp://open.demonii.si:1337/announce
DOWNLOAD Torrent
X
Attention! Use a VPN when Accessing Free Content !
Your IP address is - Country:
Your Internet provider Tracks your Activity! Hide your IP ADDRESS with a VPN!
Bonus: Get Lag-Free Streams & No popups with any VPN Purchased !

Download Here