Loading...

The Sky at Night 12.May.2019.Supermassive Black Hole (1280x720p H...

  • Category TV
  • Type HD
  • Language English
  • Total size 1.0 GB
  • Uploaded By ElsonRoa
  • Downloads 29
  • Last checked 1 month ago
  • Date uploaded 1 month ago
  • Seeders 0
  • Leechers 1

Infohash : 46F83D9C9B3831E47BC0DCB5E0D5033F59C1A00E

The Importance of Being Oscar (1280x720p HD, 50fps, soft Eng subs)

A star-studded account of Oscar Wilde's glittering and controversial career before his trial for homosexual crimes and tragic fall from grace.

Highlights from Oscar's brilliant comedies such as The Importance of Being Earnest and stories such as The Picture of Dorian Gray and The Canterville Ghost are adapted and performed by a cast including Freddie Fox, Claire Skinner, Anna Chancellor and James Fleet. Wilde enthusiasts and experts, including Stephen Fry, Wilde's grandson Merlin Holland and his latest biographers, provide revelatory accounts of how his own life informed his work. His Irish roots, his early career, his marriage and the importance of women as well as men in his life all combine in a complex and compelling characterisation and celebration that adds flesh to the bones of a man who is too often caricatured.

First broadcast: 20 April 2019
Duration: 90 minutes

Torrent dead? Request reseed at 1337xproxy.info or torrentgalaxy.org - or ask at elsonroa at tutanota.com



Media info:-
General
Format : MPEG-4
Format profile : Base Media
Codec ID : isom (isom/iso2/avc1/mp41)
File size : 2.63 GiB
Duration : 1h 24mn
Overall bit rate mode : Variable
Overall bit rate : 4 480 Kbps
Writing application : Lavf57.83.100


Video
ID : 1
Format : AVC
Format/Info : Advanced Video Codec
Format profile : [email protected]
Format settings, CABAC : Yes
Format settings, ReFrames : 4 frames
Codec ID : avc1
Codec ID/Info : Advanced Video Coding
Duration : 1h 24mn
Bit rate : 4 155 Kbps
Width : 1 280 pixels
Height : 720 pixels
Display aspect ratio : 16:9
Frame rate mode : Constant
Frame rate : 50.000 fps
Color space : YUV
Chroma subsampling : 4:2:0
Bit depth : 8 bits
Scan type : Progressive
Bits/(Pixel*Frame) : 0.090
Stream size : 2.44 GiB (93%)
Encoded date : UTC 1904-01-01 00:00:00
Tagged date : UTC 1904-01-01 00:00:00
Color range : Limited
Color primaries : BT.709
Transfer characteristics : BT.709
Matrix coefficients : BT.709

Audio
ID : 2
Format : AAC
Format/Info : Advanced Audio Codec
Format profile : LC
Codec ID : 40
Duration : 1h 24mn
Bit rate mode : Variable
Bit rate : 317 Kbps
Maximum bit rate : 333 Kbps
Channel(s) : 2 channels
Channel positions : Front: L R
Sampling rate : 48.0 KHz
Frame rate : 46.875 fps (1024 spf)
Compression mode : Lossy
Stream size : 191 MiB (7%)
Language : English

Files:

The Sky at Night 12.May.2019.Supermassive Black Hole
  • About this torrent.txt (2.0 KB)
  • If this torrent is dead.txt (0.1 KB)
  • The Sky at Night 12.May.2019.Supermassive Black Hole.jpg (741.3 KB)
  • The Sky at Night 12.May.2019.Supermassive Black Hole.mp4 (1.0 GB)
  • The Sky at Night 12.May.2019.Supermassive Black Hole.srt (71.4 KB)
  • Torrent Downloaded From 1337xproxy.info.txt (0.0 KB)
  • [TGx]Downloaded from torrentgalaxy.org .txt (0.6 KB)

There are currently no comments. Feel free to leave one :)

Code:

  • udp://bt.xxx-tracker.com:2710/announce
  • udp://tracker.torrent.eu.org:451/announce
  • udp://tracker.iamhansen.xyz:2000/announce
  • udp://retracker.hotplug.ru:2710/announce
  • udp://tracker.birkenwald.de:6969/announce
  • udp://tracker.novg.net:6969/announce
  • udp://tracker.supertracker.net:1337/announce
DOWNLOAD Torrent