Loading...

TT3D-Closer.to.the.Edge--2011-2D-720p-w.subs-x265-HEVC

  • Category Documentaries
  • Type Documentary
  • Language English
  • Total size 1.4 GB
  • Uploaded By uggauga
  • Downloads 84
  • Last checked 1 day ago
  • Date uploaded 5 days ago
  • Seeders 3
  • Leechers 1

Infohash : 76C7919CCE022606F46A7B3CDBE417C9075593D5

TT3D: Closer to the Edge (2011)

By vividly recounting the TT's legendary rivalries and the Isle of Man's unique road racing history, this 3D feature documentary will discover why modern TT riders still risk their lives to win the world's most dangerous race. The Isle of Man Tourist Trophy is the greatest motorcycle road race in the world, the ultimate challenge for rider and machine. It has always called for a commitment far beyond any other racing event, and many have made the ultimate sacrifice in their quest for victory. A story about freedom of choice, the strength of human spirit and the will to win. It's also an examination of what motivates those rare few, this elite band of brothers who risk everything to win. The vision of top commercials director Richard de Aragues, this promises to be one of the most thrilling films of 2011.

1h 44min | Documentary, Sport

//www.imdb.com/title/tt1698010/
//en.wikipedia.org/wiki/TT3D:_Closer_to_the_Edge
_______________________________________

720p - x265/HEVC !!

Re-encode of TT3D.Closer.to.the.Edge.2011.720p.BluRay.x264.mkv (5.6GB)

Even though it is titled (and apparently was shot in) 3D this is only 2D
_______________________________________

File size : 1.38 GiB
Duration : 1 h 43 min
Description : Recounting the TT's legendary rivalries and the Isle of Man's unique road racing
Recorded date : 2011

Video
Format : HEVC
Format/Info : High Efficiency Video Coding
Bit rate : 1 322 kb/s
Width : 1 280 pixels
Height : 694 pixels
Display aspect ratio : 1.85:1
Frame rate mode : Variable
Frame rate : 23.976 (23976/1000) FPS
Stream size : 979 MiB (69%)

Audio
Format : AAC
Format/Info : Advanced Audio Codec
Bit rate mode : Constant
Bit rate : 576 kb/s
Channel(s)_Original : 6 channels
Channel positions : Front: L C R, Side: L R, LFE
Sampling rate : 48.0 kHz
Stream size : 426 MiB (30%)
Title : Surround
Language : English

Text
Format : VobSub
Language : English

Files:

TT3D-Closer.to.the.Edge--2011-2D-720p-w.subs-x265-HEVC
  • TT3D-Closer.to.the.Edge--2011-2D-720p-w.subs-x265-HEVC.mp4 (1.4 GB)
  • TT3D-Closer.to.the.Edge--2011-2D-720p-w.subs-x265-HEVC--Sample.mp4 (24.2 MB)

There are currently no comments. Feel free to leave one :)

Code:

  • udp://tracker.opentrackr.org:1337/announce
  • udp://62.138.0.158:6969/announce
  • udp://tracker.leechers-paradise.org:6969/announce
  • //tracker1.wasabii.com.tw:6969/announce
  • //tracker.tfile.me/announce
  • //explodie.org:6969/announce
  • udp://tracker.zer0day.to:1337/announce
  • udp://eddie4.nl:6969/announce
  • udp://tracker.leechers-paradise.org:6969
  • udp://tracker.coppersurfer.tk:6969
  • udp://9.rarbg.com:2710/announce
  • udp://9.rarbg.me:2710/announce
  • udp://leechers-paradise.org:6969
  • udp://tracker.coppersurfer.tk:80
  • udp://p4p.arenabg.com:1337
  • udp://9.rarbg.to:2710/announce
  • udp://tracker.coppersurfer.tk:6969/announce
DOWNLOAD Torrent