Loading...

Great British Menu S14E25 The Finals Starter (1280x720p HD, 50fps...

  • Category TV
  • Type HD
  • Language English
  • Total size 2.2 GB
  • Uploaded By ElsonRoa
  • Downloads 70
  • Last checked 4 months ago
  • Date uploaded 4 months ago
  • Seeders 3
  • Leechers 2

Infohash : 0603751F9AAE267CE007AA6EF237DFF71A35C6F7

Great British Menu S14E25 The Finals Starter (1280x720p HD, 50fps, soft Eng subs)

It is national finals week, where the winning chefs from the regional heats compete for the honour of cooking at a banquet celebrating the brilliance of British popular music, held at Abbey Road Studios. Each episode sees the eight rivals cook a different course - and with this being the last chance they have to impress the expert judges and a raft of guest judges from the British music industry, the pressure is on.

In the first episode, the eight chefs battle to get their starter course to the Abbey Road banquet and don't disappoint with stunning dishes dedicated to everything from Tom Jones to grime. The rivals are cooking to impress food writer Matthew Fort, restaurateur Oliver Peyton, broadcaster and cook Andi Oliver, and guest judge and British music legend Martin Kemp. Since the chefs last cooked their starters in the regional finals, they have had an opportunity to tweak the dishes with the judge's feedback in mind, and with one chef choosing to cook a brand new, previously untested dish, there are some big surprises in store. With the stakes so high, and the finest chefs in the competition all vying for victory, which of the fierce rivals can secure the first place on the banquet menu?

First broadcast: 13 May 2019
Duration: 1 hour

Torrent dead? Request reseed at 1337xproxy.info or torrentgalaxy.org - or ask at elsonroa at tutanota.com



Media info
General
Format : MPEG-4
Format profile : Base Media
Codec ID : isom (isom/iso2/avc1/mp41)
File size : 2.19 GiB
Duration : 59mn 0s
Overall bit rate mode : Variable
Overall bit rate : 5 306 Kbps
Writing application : Lavf57.83.100


Video
ID : 1
Format : AVC
Format/Info : Advanced Video Codec
Format profile : [email protected]
Format settings, CABAC : Yes
Format settings, ReFrames : 4 frames
Codec ID : avc1
Codec ID/Info : Advanced Video Coding
Duration : 59mn 0s
Bit rate : 4 981 Kbps
Width : 1 280 pixels
Height : 720 pixels
Display aspect ratio : 16:9
Frame rate mode : Constant
Frame rate : 50.000 fps
Color space : YUV
Chroma subsampling : 4:2:0
Bit depth : 8 bits
Scan type : Progressive
Bits/(Pixel*Frame) : 0.108
Stream size : 2.05 GiB (94%)
Encoded date : UTC 1904-01-01 00:00:00
Tagged date : UTC 1904-01-01 00:00:00
Color range : Limited
Color primaries : BT.709
Transfer characteristics : BT.709
Matrix coefficients : BT.709

Audio
ID : 2
Format : AAC
Format/Info : Advanced Audio Codec
Format profile : LC
Codec ID : 40
Duration : 59mn 0s
Bit rate mode : Variable
Bit rate : 317 Kbps
Maximum bit rate : 363 Kbps
Channel(s) : 2 channels
Channel positions : Front: L R
Sampling rate : 48.0 KHz
Frame rate : 46.875 fps (1024 spf)
Compression mode : Lossy
Stream size : 134 MiB (6%)
Language : English

Files:

Great British Menu S14E25 The Finals Starter
  • About this torrent.txt (2.7 KB)
  • Great British Menu S14E25 The Finals Starter.jpg (891.7 KB)
  • Great British Menu S14E25 The Finals Starter.mp4 (2.2 GB)
  • Great British Menu S14E25 The Finals Starter.srt (150.1 KB)
  • If this torrent is dead.txt (0.1 KB)
  • Torrent Downloaded From 1337xproxy.info.txt (0.0 KB)
  • [TGx]Downloaded from torrentgalaxy.org .txt (0.6 KB)

There are currently no comments. Feel free to leave one :)

Code:

  • udp://bt.xxx-tracker.com:2710/announce
  • udp://tracker.torrent.eu.org:451/announce
  • udp://tracker.iamhansen.xyz:2000/announce
  • udp://retracker.hotplug.ru:2710/announce
  • udp://tracker.birkenwald.de:6969/announce
  • udp://tracker.novg.net:6969/announce
  • udp://tracker.supertracker.net:1337/announce
DOWNLOAD Torrent
X
Attention! Use a VPN when Accessing Free Content !
Your IP address is - Country:
Your Internet provider Tracks your Activity! Hide your IP ADDRESS with a VPN!
Bonus: Get Lag-Free Streams & No popups with any VPN Purchased !

Download Here