Loading...

Doris Day - Virgin Territory (1280x720p HD, 50fps, soft Eng subs)

  • Category TV
  • Type HD
  • Language English
  • Total size 2.2 GB
  • Uploaded By ElsonRoa
  • Downloads 58
  • Last checked 1 month ago
  • Date uploaded 1 month ago
  • Seeders 6
  • Leechers 2

Infohash : 44C0E5E567560432B973289CD22692AA887289DC

Doris Day - Virgin Territory (1280x720p HD, 50fps, soft Eng subs)

Doris Day has often been dismissed as an actress and overlooked as a singer, despite career highs such as Calamity Jane and Pillow Talk. Covering her early years as a band singer, and her troubled private life, this documentary re-evaluates one of the screen's most enduring legends.

First broadcast: 25 November 2005
Duration: 1 hour

Torrent dead? Request reseed at 1337xproxy.info or torrentgalaxy.org - or ask at elsonroa at tutanota.com



Media info:
Format : MPEG-4
Format profile : Base Media
Codec ID : isom (isom/iso2/avc1/mp41)
File size : 2.18 GiB
Duration : 59mn 1s
Overall bit rate : 5 291 Kbps
Writing application : Lavf57.83.100

Video
ID : 1
Format : AVC
Format/Info : Advanced Video Codec
Format profile : [email protected]
Format settings, CABAC : Yes
Format settings, ReFrames : 4 frames
Codec ID : avc1
Codec ID/Info : Advanced Video Coding
Duration : 59mn 1s
Bit rate : 4 966 Kbps
Width : 1 280 pixels
Height : 720 pixels
Display aspect ratio : 16:9
Frame rate mode : Constant
Frame rate : 50.000 fps
Color space : YUV
Chroma subsampling : 4:2:0
Bit depth : 8 bits
Scan type : Progressive
Bits/(Pixel*Frame) : 0.108
Stream size : 2.05 GiB (94%)
Encoded date : UTC 1904-01-01 00:00:00
Tagged date : UTC 1904-01-01 00:00:00
Color range : Limited
Color primaries : BT.601 PAL
Transfer characteristics : BT.470 System B, BT.470 System G
Matrix coefficients : BT.601

Audio
ID : 2
Format : AAC
Format/Info : Advanced Audio Codec
Format profile : LC
Codec ID : 40
Duration : 59mn 1s
Bit rate mode : Constant
Bit rate : 317 Kbps
Channel(s) : 2 channels
Channel positions : Front: L R
Sampling rate : 48.0 KHz
Frame rate : 46.875 fps (1024 spf)
Compression mode : Lossy
Stream size : 134 MiB (6%)

Files:

Doris Day - Virgin Territory
  • About this torrent.txt (1.7 KB)
  • Doris Day - Virgin Territory..jpg (769.4 KB)
  • Doris Day - Virgin Territory..mp4 (2.2 GB)
  • Doris Day - Virgin Territory..srt (125.4 KB)
  • If this torrent is dead.txt (0.1 KB)
  • Torrent Downloaded From 1337xproxy.info.txt (0.0 KB)
  • [TGx]Downloaded from torrentgalaxy.org .txt (0.6 KB)

There are currently no comments. Feel free to leave one :)

Code:

  • udp://bt.xxx-tracker.com:2710/announce
  • udp://tracker.torrent.eu.org:451/announce
  • udp://tracker.iamhansen.xyz:2000/announce
  • udp://retracker.hotplug.ru:2710/announce
  • udp://tracker.birkenwald.de:6969/announce
  • udp://tracker.novg.net:6969/announce
  • udp://tracker.supertracker.net:1337/announce
DOWNLOAD Torrent