Loading...

Chernobyl.S01E02.1080p.WEB.x265.10bit.6CH.ReEnc-LUMI

  • Category TV
  • Type HEVC/x265
  • Language English
  • Total size 1.2 GB
  • Uploaded By lumi265
  • Downloads 963
  • Last checked 1 month ago
  • Date uploaded 1 month ago
  • Seeders 16
  • Leechers 2

Infohash : 14DAAF9529A9EF55862114926CF6365670AC6820



presents



Chernobyl S01E01 in 1080p x265 10bit!



SEED TILL YOU BLEED



Note: The series is shot in a grainy manner to reflect the 80s look. Hence it is noisy, its not "bad quality".

Donate to help support!

Code:


Bitcoin: 3HKCmf9e2oTr9KvJcXCDRaCjg1AxioL1UE
BCH: qqgvak0004cj9g9p2fqcz0s8q8384s8mecq88swgpe
ETH: 0x865fEC58a2d98f44d7253A1d5cE18b40fb124462
LTC: MLogKCRBvwoeXe5z7wej8V93sQi1ue9uTr
ZEC: t1K9grYE1ZkQF9ftmowo3ejJZadpxKg9zn9



Screens:





Source: chernobyl.s01e02.internal.1080p.web.h264-memento (Thanks!)

Code:


Format : MPEG-4
Format profile : Base Media / Version 2
Codec ID : mp42 (isom/iso2/mp41)
File size : 1.18 GiB
Duration : 1 h 9 min
Overall bit rate mode : Variable
Overall bit rate : 2 429 kb/s

Video
ID : 1
Format : HEVC
Format/Info : High Efficiency Video Coding
Format profile : Main [email protected]@Main
Codec ID : hvc1
Codec ID/Info : High Efficiency Video Coding
Duration : 1 h 9 min
Bit rate : 2 167 kb/s
Width : 1 920 pixels
Height : 960 pixels
Display aspect ratio : 2.000
Frame rate mode : Variable
Frame rate : 23.976 (24000/1001) FPS
Minimum frame rate : 23.974 FPS
Maximum frame rate : 23.981 FPS
Color space : YUV
Chroma subsampling : 4:2:0
Bit depth : 10 bits
Bits/(Pixel*Frame) : 0.049
Stream size : 1.05 GiB (89%)
Writing library : x265 2.9:[Windows][GCC 8.2.0][64 bit] 10bit

Audio
ID : 2
Format : AAC LC
Format/Info : Advanced Audio Codec Low Complexity
Codec ID : mp4a-40-2
Duration : 1 h 9 min
Bit rate mode : Constant
Bit rate : 255 kb/s
Channel(s) : 6 channels
Channel layout : C L R Ls Rs LFE
Sampling rate : 48.0 kHz
Frame rate : 46.875 FPS (1024 SPF)
Compression mode : Lossy
Stream size : 127 MiB (11%)
Title : Surround
Language : English

Text
ID : 3
Format : Timed Text
Muxing mode : sbtl
Codec ID : tx3g
Duration : 1 h 9 min
Bit rate mode : Variable
Bit rate : 62 b/s
Stream size : 31.5 KiB (0%)
Language : English
Default : Yes



Files:

  • Chernobyl.S01E02.1080p.WEB.x265.10bit.6CH.ReEnc-LUMI.mp4 (1.2 GB)

Comments

Code:

  • udp://tracker.leechers-paradise.org:6969/announce
  • udp://tracker.coppersurfer.tk:6969/announce
  • udp://tracker.open-internet.nl:6969/announce
  • udp://tracker.internetwarriors.net:1337/announce
  • udp://open.demonii.si:1337/announce
  • udp://9.rarbg.to:2710/announce
DOWNLOAD Torrent