Loading...

Great British Menu S14E26 The Finals Fish Course (1280x720p HD, 5...

  • Category TV
  • Type HD
  • Language English
  • Total size 2.2 GB
  • Uploaded By ElsonRoa
  • Downloads 76
  • Last checked 4 months ago
  • Date uploaded 4 months ago
  • Seeders 6
  • Leechers 3

Infohash : 5C524EA74BA5B56E8173D3BA1B9DDF067E772C1C

Great British Menu S14E26 The Finals Fish Course (1280x720p HD, 50fps, soft Eng subs)

Some of the finest chefs in the UK compete to cook a fish course worthy of serving at a banquet celebrating the brilliance of British popular music, held at Abbey Road Studios. Along with the show's panel of expert judges, the rivals need to impress guest judge Kanya King - a key player in Britain's music industry, and the founder of the MOBO awards.

As ever, the judges are expecting fish courses with both stunning flavour, and a theatrical wow factor worthy of the legendary banquet venue. Battle lines were drawn during the starters yesterday, with one chef securing the first place on the banquet menu, and others falling behind against such stiff competition, and now the rivals are even more desperate to impress. With incredibly creative fish courses that pay tribute to British music ranging from the Pink Floyd to the Spice Girls, the food is show-stopping - but only one fish course will make it to Abbey Road.

First broadcast: 14 May 2019
Duration: 1 hour

Torrent dead? Request reseed at 1337xproxy.info or torrentgalaxy.org - or ask at elsonroa at tutanota.com



Media info:-
General
Format : MPEG-4
Format profile : Base Media
Codec ID : isom (isom/iso2/avc1/mp41)
File size : 2.17 GiB
Duration : 58mn 55s
Overall bit rate mode : Variable
Overall bit rate : 5 281 Kbps
Writing application : Lavf57.83.100


Video
ID : 1
Format : AVC
Format/Info : Advanced Video Codec
Format profile : [email protected]
Format settings, CABAC : Yes
Format settings, ReFrames : 4 frames
Codec ID : avc1
Codec ID/Info : Advanced Video Coding
Duration : 58mn 55s
Bit rate : 4 956 Kbps
Width : 1 280 pixels
Height : 720 pixels
Display aspect ratio : 16:9
Frame rate mode : Constant
Frame rate : 50.000 fps
Color space : YUV
Chroma subsampling : 4:2:0
Bit depth : 8 bits
Scan type : Progressive
Bits/(Pixel*Frame) : 0.108
Stream size : 2.04 GiB (94%)
Encoded date : UTC 1904-01-01 00:00:00
Tagged date : UTC 1904-01-01 00:00:00
Color range : Limited
Color primaries : BT.709
Transfer characteristics : BT.709
Matrix coefficients : BT.709

Audio
ID : 2
Format : AAC
Format/Info : Advanced Audio Codec
Format profile : LC
Codec ID : 40
Duration : 58mn 55s
Bit rate mode : Variable
Bit rate : 317 Kbps
Maximum bit rate : 338 Kbps
Channel(s) : 2 channels
Channel positions : Front: L R
Sampling rate : 48.0 KHz
Frame rate : 46.875 fps (1024 spf)
Compression mode : Lossy
Stream size : 134 MiB (6%)
Language : English

Files:

Great British Menu S14E26 The Finals Fish Course
  • About this torrent.txt (2.4 KB)
  • Great British Menu S14E26 The Finals Fish Course.jpg (865.2 KB)
  • Great British Menu S14E26 The Finals Fish Course.mp4 (2.2 GB)
  • Great British Menu S14E26 The Finals Fish Course.srt (148.2 KB)
  • If this torrent is dead.txt (0.1 KB)
  • Torrent Downloaded From 1337xproxy.info.txt (0.0 KB)
  • [TGx]Downloaded from torrentgalaxy.org .txt (0.6 KB)

There are currently no comments. Feel free to leave one :)

Code:

  • udp://tracker.torrent.eu.org:451/announce
  • udp://tracker.iamhansen.xyz:2000/announce
  • udp://retracker.hotplug.ru:2710/announce
  • udp://tracker.birkenwald.de:6969/announce
  • udp://tracker.novg.net:6969/announce
  • udp://tracker.supertracker.net:1337/announce
  • udp://bigfoot1942.sektori.org:6969/announce
DOWNLOAD Torrent
X
Attention! Use a VPN when Accessing Free Content !
Your IP address is - Country:
Your Internet provider Tracks your Activity! Hide your IP ADDRESS with a VPN!
Bonus: Get Lag-Free Streams & No popups with any VPN Purchased !

Download Here