Loading...

Whats.My.Name.Muhammad.Ali.2019.1080p.AMZN.WEB-DL.DDP5.1.H.264-NT...

  • Category Movies
  • Type HD
  • Language English
  • Total size 10.9 GB
  • Uploaded By lumi265
  • Downloads 141
  • Last checked 2 months ago
  • Date uploaded 2 months ago
  • Seeders 9
  • Leechers 9

What's My Name: Muhammad Ali

Documentary

One of the most iconic figures in athletic history, Muhammad Ali's incredible story from world champion boxer to inspiring social activist is explored through his own voice and never-before-seen archival material.

Infohash : 0B06159B6C7CECA0DFE34CF2080A42DA3BEE42FB

First ;)

Enjoy this upload, wanted to be first to release it to public.

x265 coming soon~







Code:


Video
ID                                       : 1
Format                                   : AVC
Format/Info                              : Advanced Video Codec
Format profile                           : [email protected]
Format settings, CABAC                   : Yes
Format settings, ReFrames                : 4 frames
Codec ID                                 : V_MPEG4/ISO/AVC
Duration                                 : 1 h 23 min
Bit rate mode                            : Constant
Bit rate                                 : 8 798 kb/s
Nominal bit rate                         : 10 000 kb/s
Width                                    : 1 920 pixels
Height                                   : 1 080 pixels
Display aspect ratio                     : 16:9
Frame rate mode                          : Constant
Frame rate                               : 23.976 (24000/1001) FPS
Color space                              : YUV
Chroma subsampling                       : 4:2:0
Bit depth                                : 8 bits
Scan type                                : Progressive
Bits/(Pixel*Frame)                       : 0.177
Stream size                              : 5.12 GiB (93%)
Default                                  : Yes
Forced                                   : No
Color range                              : Limited
Color primaries                          : BT.709
Transfer characteristics                 : BT.709
Matrix coefficients                      : BT.709

Audio
ID                                       : 2
Format                                   : E-AC-3
Format/Info                              : Enhanced Audio Coding 3
Format settings, Endianness              : Big
Codec ID                                 : A_EAC3
Duration                                 : 1 h 23 min
Bit rate mode                            : Constant
Bit rate                                 : 640 kb/s
Channel(s)                               : 6 channels
Channel positions                        : Front: L C R, Side: L R, LFE
Sampling rate                            : 48.0 kHz
Frame rate                               : 187.500 FPS (256 spf)
Compression mode                         : Lossy
Delay relative to video                  : 18 ms
Stream size                              : 382 MiB (7%)
Language                                 : English
Default                                  : Yes
Forced                                   : No

Text #1
ID                                       : 3
Format                                   : UTF-8
Codec ID                                 : S_TEXT/UTF8
Codec ID/Info                            : UTF-8 Plain Text
Duration                                 : 1 h 22 min
Bit rate                                 : 105 b/s
Count of elements                        : 1694
Stream size                              : 64.2 KiB (0%)
Language                                 : English
Default                                  : No
Forced                                   : No

Text #2
ID                                       : 4
Format                                   : UTF-8
Codec ID                                 : S_TEXT/UTF8
Codec ID/Info                            : UTF-8 Plain Text
Duration                                 : 1 h 23 min
Bit rate                                 : 109 b/s
Count of elements                        : 1803
Stream size                              : 66.8 KiB (0%)
Title                                    : SDH
Language                                 : English
Default                                  : No
Forced                                   : No


Files:

Whats.My.Name.Muhammad.Ali.2019.1080p.AMZN.WEB-DL.DDP5.1.H.264-NTG
  • Whats.My.Name.Muhammad.Ali.2019.Part.1.1080p.AMZN.WEB-DL.DDP5.1.H.264-NTG.mkv (5.5 GB)
  • Whats.My.Name.Muhammad.Ali.2019.Part.2.1080p.AMZN.WEB-DL.DDP5.1.H.264-NTG.mkv (5.4 GB)

Comments

Code:

  • udp://tracker.leechers-paradise.org:6969/announce
  • udp://tracker.coppersurfer.tk:6969/announce
  • udp://tracker.open-internet.nl:6969/announce
  • udp://tracker.internetwarriors.net:1337/announce
  • udp://open.demonii.si:1337/announce
  • udp://9.rarbg.to:2710/announce
DOWNLOAD Torrent