Loading...

Adventures.Of.Aladdin.2019.1080p.WEB-DL.DD5.1.H264-FGT

  • Category Movies
  • Type HD
  • Language English
  • Total size 3.4 GB
  • Uploaded By Dakshvv
  • Downloads 1579
  • Last checked 3 months ago
  • Date uploaded 3 months ago
  • Seeders 43
  • Leechers 18

Adventures of Aladdin

Adventure

With the help of a magical lamp, an impoverished young man transforms himself into a prince in order to win the heart of a beautiful princess. A live-action retelling of the 1992 Disney film of the same name.

Infohash : 8000E4637566255A421B8813C6CB3A45F380D23E



Screenshot





Code:



Video
ID : 1
Format : AVC
Format/Info : Advanced Video Codec
Format profile : [email protected]
Format settings : CABAC / 4 Ref Frames
Format settings, CABAC : Yes
Format settings, ReFrames : 4 frames
Codec ID : V_MPEG4/ISO/AVC
Duration : 1 h 27 min
Bit rate : 5 197 kb/s
Width : 1 920 pixels
Height : 1 080 pixels
Display aspect ratio : 16:9
Frame rate mode : Constant
Frame rate : 23.976 FPS
Color space : YUV
Chroma subsampling : 4:2:0
Bit depth : 8 bits
Scan type : Progressive
Bits/(Pixel*Frame) : 0.105
Stream size : 3.18 GiB (93%)
Title : Adventures.Of.Aladdin.2019.1080p.WEB-DL.DD5.1.H264-FGT
Language : English
Default : Yes
Forced : No
Color range : Limited
Color primaries : BT.709
Transfer characteristics : BT.709
Matrix coefficients : BT.709

Audio
ID : 2
Format : AC-3
Format/Info : Audio Coding 3
Commercial name : Dolby Digital
Codec ID : A_AC3
Duration : 1 h 27 min
Bit rate mode : Constant
Bit rate : 384 kb/s
Channel(s) : 6 channels
Channel layout : L R C LFE Ls Rs
Sampling rate : 48.0 kHz
Frame rate : 31.250 FPS (1536 SPF)
Bit depth : 16 bits
Compression mode : Lossy
Stream size : 241 MiB (7%)
Title : Adventures.Of.Aladdin.2019.1080p.WEB-DL.DD5.1.H264-FGT
Language : English
Service kind : Complete Main
Default : Yes
Forced : No

Text
ID : 3
Format : UTF-8
Codec ID : S_TEXT/UTF8
Codec ID/Info : UTF-8 Plain Text
Duration : 1 h 27 min
Bit rate : 64 b/s
Count of elements : 1151
Stream size : 41.6 KiB (0%)
Language : English
Default : Yes
Forced : No

Menu
00:00:00.000 : en:1
00:12:58.361 : en:2
00:21:58.733 : en:3
00:29:04.200 : en:4
00:40:31.345 : en:5
00:50:45.459 : en:6
01:01:56.671 : en:7
01:12:01.149 : en:8
01:24:30.272 : en:9
01:27:38.961 : en:1

Files:

Adventures.Of.Aladdin.2019.1080p.WEB-DL.DD5.1.H264-FGT
  • Adventures.Of.Aladdin.2019.1080p.WEB-DL.DD5.1.H264-FGT.mkv (3.4 GB)
  • RARBG.txt (0.0 KB)

Comments

Code:

  • //tracker.trackerfix.com:80/announce
  • udp://9.rarbg.me:2750/announce
  • udp://9.rarbg.to:2790/announce
cdn
DOWNLOAD Torrent
X
Attention! Use a VPN when Accessing Free Content !
Your IP address is - Country:
Your Internet provider Tracks your Activity! Hide your IP ADDRESS with a VPN!
Bonus: Get Lag-Free Streams & No popups with any VPN Purchased !

Download Here