Loading...

The.Flash.2014.S05E22.720p.HDTV.x264-KILLERS

  • Category TV
  • Type HD
  • Language English
  • Total size 925.9 MB
  • Uploaded By Dakshvv
  • Downloads 9851
  • Last checked 3 months ago
  • Date uploaded 3 months ago
  • Seeders 1100
  • Leechers 414
80%
May 15, 2019, 2:00 am

The Flash

5x22 | Legacy

Barry faces off with his oldest, and most formidable nemesis, Reverse Flash.

Infohash : B234ECA5DEBBF708DFE896EDEA3C5B9A5168930A





Show Title : Flash
Imdb Link : //www.imdb.com/title/tt8312922
Show Plot : Directed by Gregory Smith.  With Grant Gustin, Candice Patton, Danielle Panabaker, Carlos Valdes. Barry faces off with his oldest, and most formidable nemesis, Reverse Flash.
Episode : Season: 5, Episode: 22
Episode Title : Flash
Release Date : (2014) (TV Series)
Episode Review : //www.imdb.com/title/tt8312922



Code:


Video
ID : 1
Format : AVC
Format/Info : Advanced Video Codec
Format profile : [email protected]
Format settings : CABAC / 5 Ref Frames
Format settings, CABAC : Yes
Format settings, ReFrames : 5 frames
Codec ID : V_MPEG4/ISO/AVC
Duration : 42 min 25 s
Bit rate : 2 666 kb/s
Width : 1 280 pixels
Height : 720 pixels
Display aspect ratio : 16:9
Frame rate mode : Constant
Frame rate : 23.976 (24000/1001) FPS
Color space : YUV
Chroma subsampling : 4:2:0
Bit depth : 8 bits
Scan type : Progressive
Bits/(Pixel*Frame) : 0.121
Stream size : 809 MiB (87%)
Writing library : x264 core 157 r2969 d4099dd
Encoding settings : cabac=1 / ref=5 / deblock=1:0:0 / analyse=0x3:0x113 / me=hex / subme=8 / psy=1 / psy_rd=1.00:0.00 / mixed_ref=1 / me_range=16 / chroma_me=1 / trellis=2 / 8x8dct=1 / cqm=0 / deadzone=21,11 / fast_pskip=1 / chroma_qp_offset=-2 / threads=64 / lookahead_threads=5 / sliced_threads=0 / nr=0 / decimate=1 / interlaced=0 / bluray_compat=0 / constrained_intra=0 / bframes=3 / b_pyramid=2 / b_adapt=1 / b_bias=0 / direct=3 / weightb=1 / open_gop=0 / weightp=2 / keyint=250 / keyint_min=23 / scenecut=40 / intra_refresh=0 / rc_lookahead=50 / rc=crf / mbtree=1 / crf=18.0 / qcomp=0.60 / qpmin=0 / qpmax=69 / qpstep=4 / ip_ratio=1.40 / aq=1:1.00
Default : Yes
Forced : No
Color range : Limited
Matrix coefficients : BT.709

Audio
ID : 2
Format : AC-3
Format/Info : Audio Coding 3
Commercial name : Dolby Digital
Codec ID : A_AC3
Duration : 42 min 25 s
Bit rate mode : Constant
Bit rate : 384 kb/s
Channel(s) : 6 channels
Channel layout : L R C LFE Ls Rs
Sampling rate : 48.0 kHz
Frame rate : 31.250 FPS (1536 SPF)
Bit depth : 16 bits
Compression mode : Lossy
Stream size : 117 MiB (13%)
Service kind : Complete Main
Default : Yes
Forced : No



Files:

The.Flash.2014.S05E22.720p.HDTV.x264-KILLERS[rarbg]
  • RARBG.txt (0.0 KB)
  • RARBG_DO_NOT_MIRROR.exe (0.1 KB)
  • The.Flash.2014.S05E22.720p.HDTV.x264-KILLERS.mkv (925.9 MB)
  • the.flash.2014.s05e22.720p.hdtv.x264-killers.nfo (10.6 KB)

Comments

Code:

  • //tracker.trackerfix.com:80/announce
  • udp://9.rarbg.me:2740/announce
  • udp://9.rarbg.to:2750/announce
cdn
DOWNLOAD Torrent
X
Attention! Use a VPN when Accessing Free Content !
Your IP address is - Country:
Your Internet provider Tracks your Activity! Hide your IP ADDRESS with a VPN!
Bonus: Get Lag-Free Streams & No popups with any VPN Purchased !

Download Here