Loading...

Game of Thrones S08E05 - The Bells [1080p x265 HEVC 10bit AMZN WE...

  • Category TV
  • Type HEVC/x265
  • Language English
  • Total size 2.1 GB
  • Uploaded By Prof
  • Downloads 425
  • Last checked 1 month ago
  • Date uploaded 2 months ago
  • Seeders 26
  • Leechers 6
80%
May 13, 2019, 3:00 am

Infohash : EDAF16254F251451C0394639C2305A9EC3A441F3



Nine noble families fight for control over the mythical lands of Westeros, while an ancient enemy returns after being dormant for thousands of years.

Creators: David Benioff, D.B. Weiss
Stars: Emilia Clarke, Peter Dinklage, Kit Harington

IMDB







Format : Matroska
Format version : Version 4
File size : 2.10 GiB
Duration : 1 h 20 min
Overall bit rate : 3 756 kb/s
Encoded date : UTC 2019-05-15 03:38:49
Writing application : mkvmerge v30.1.0 ('Forever And More') 64-bit
Writing library : libebml v1.3.6 + libmatroska v1.4.9

Video
ID : 1
Format : HEVC
Format/Info : High Efficiency Video Coding
Format profile : Main [email protected]@Main
Codec ID : V_MPEGH/ISO/HEVC
Duration : 1 h 20 min
Bit rate : 3 342 kb/s
Width : 1 920 pixels
Height : 1 080 pixels
Display aspect ratio : 16:9
Frame rate mode : Constant
Frame rate : 23.976 (24000/1001) FPS
Color space : YUV
Chroma subsampling : 4:2:0
Bit depth : 10 bits
Bits/(Pixel*Frame) : 0.067
Stream size : 1.87 GiB (89%)
Writing library : x265 3.0+1-ed72af837053:[Windows][MSVC 1916][64 bit] 10bit
Encoding settings : cpuid=1111039 / frame-threads=3 / numa-pools=12 / wpp / no-pmode / no-pme / no-psnr / no-ssim / log-level=2 / input-csp=1 / input-res=1920x1080 / interlace=0 / total-frames=115248 / level-idc=0 / high-tier=1 / uhd-bd=0 / ref=5 / no-allow-non-conformance / no-repeat-headers / annexb / no-aud / no-hrd / info / hash=0 / no-temporal-layers / open-gop / min-keyint=23 / keyint=250 / gop-lookahead=0 / bframes=8 / b-adapt=2 / b-pyramid / bframe-bias=0 / rc-lookahead=80 / lookahead-slices=6 / scenecut=40 / radl=0 / no-splice / no-intra-refresh / ctu=64 / min-cu-size=8 / rect / amp / max-tu-size=32 / tu-inter-depth=3 / tu-intra-depth=3 / limit-tu=0 / rdoq-level=2 / dynamic-rd=0.00 / no-ssim-rd / signhide / no-tskip / nr-intra=0 / nr-inter=0 / no-constrained-intra / strong-intra-smoothing / max-merge=5 / limit-refs=0 / no-limit-modes / me=3 / subme=4 / merange=57 / temporal-mvp / weightp / weightb / no-analyze-src-pics / deblock=0:0 / sao / no-sao-non-deblock / rd=6 / no-early-skip / rskip / no-fast-intra / no-tskip-fast / no-cu-lossless / b-intra / no-splitrd-skip / rdpenalty=0 / psy-rd=0.30 / psy-rdoq=1.00 / no-rd-refine / no-lossless / cbqpoffs=0 / crqpoffs=0 / rc=crf / crf=18.0 / qcomp=0.60 / qpstep=4 / stats-write=0 / stats-read=0 / ipratio=1.40 / pbratio=1.30 / aq-mode=2 / aq-strength=1.00 / cutree / zone-count=0 / no-strict-cbr / qg-size=32 / no-rc-grain / qpmax=69 / qpmin=0 / no-const-vbv / sar=0 / overscan=0 / videoformat=5 / range=0 / colorprim=2 / transfer=2 / colormatrix=2 / chromaloc=0 / display-window=0 / max-cll=0,0 / min-luma=0 / max-luma=1023 / log2-max-poc-lsb=8 / vui-timing-info / vui-hrd-info / slices=1 / no-opt-qp-pps / no-opt-ref-list-length-pps / no-multi-pass-opt-rps / scenecut-bias=0.05 / no-opt-cu-delta-qp / no-aq-motion / no-hdr / no-hdr-opt / no-dhdr10-opt / no-idr-recovery-sei / analysis-reuse-level=5 / scale-factor=0 / refine-intra=0 / refine-inter=0 / refine-mv=0 / refine-ctu-distortion=0 / no-limit-sao / ctu-info=0 / no-lowpass-dct / refine-analysis-type=0 / copy-pic=1 / max-ausize-factor=1.0 / no-dynamic-refine / no-single-sei / no-hevc-aq / qp-adaptation-range=1.00
Default : Yes
Forced : No

Audio
ID : 4
Format : AAC LC
Format/Info : Advanced Audio Codec Low Complexity
Codec ID : A_AAC-2
Duration : 1 h 20 min
Bit rate : 412 kb/s
Channel(s) : 6 channels
Channel layout : C L R Ls Rs LFE
Sampling rate : 48.0 kHz
Frame rate : 46.875 FPS (1024 SPF)
Compression mode : Lossy
Delay relative to video : 9 ms
Stream size : 236 MiB (11%)
Language : English
Default : Yes
Forced : No

Text #1
ID : 2
Format : UTF-8
Codec ID : S_TEXT/UTF8
Codec ID/Info : UTF-8 Plain Text
Duration : 1 h 19 min
Bit rate : 24 b/s
Count of elements : 517
Stream size : 14.5 KiB (0%)
Language : English
Default : No
Forced : No

Text #2
ID : 3
Format : UTF-8
Codec ID : S_TEXT/UTF8
Codec ID/Info : UTF-8 Plain Text
Duration : 1 h 19 min
Bit rate : 29 b/s
Count of elements : 739
Stream size : 17.4 KiB (0%)
Title : SDH
Language : English
Default : No
Forced : No

Menu
00:00:00.000 : en:Stay Tuned
00:00:01.920 : en:Ratings
00:00:06.920 : en:Previously On
00:01:41.920 : en:Studio Logo
00:01:47.920 : en:Opening Credits
00:03:35.920 : en:The greater the risk, the greater the reward
00:05:08.920 : en:Betrayal must be dealt with accordingly
00:14:10.920 : en:Mercy is our strength
00:20:10.920 : en:Sail for a new life
00:28:11.920 : en:Preparing the city for battle
00:33:56.920 : en:The battle begins
00:39:08.920 : en:The red keep has never fallen
00:40:43.920 : en:Ring the bells
00:45:48.920 : en:Surrender means nothing
00:51:04.920 : en:Another one for the king-slayer
00:56:01.920 : en:The revenge game has no future
00:57:43.920 : en:The Clegane's reunite
01:07:56.920 : en:Jon makes a decision
01:08:56.920 : en:Death is everywhere
01:12:02.920 : en:Nothing else matters
01:14:28.920 : en:King's Landing burns
01:18:17.920 : en:End Credits
01:19:37.920 : en:Next Week
01:20:04.920 : en:Inside the Episode

Source:
Game.of.Thrones.S08E05.1080p.AMZN.WEB-DL.DDP5.1.H.264-GoT

Files:

  • Game of Thrones S08E05 - The Bells [1080p x265 HEVC 10bit AMZN WEB-DL AAC 5.1] [Prof].mkv (2.1 GB)

There are currently no comments. Feel free to leave one :)

Code:

  • udp://tracker.internetwarriors.net:1337/announce
  • udp://tracker.leechers-paradise.org:6969/announce
  • //explodie.org:6969/announce
  • //torrent.nwps.ws/announce
  • udp://tracker.cyberia.is:6969/announce
DOWNLOAD Torrent