Loading...

[RyRo] Inazuma Eleven Orion no Kokuin - 29v1 (720p) [A40ACFA1]

  • Category Anime
  • Type Subbed
  • Language English
  • Total size 378.0 MB
  • Uploaded By EroRambos
  • Downloads 18
  • Last checked 1 week ago
  • Date uploaded 1 week ago
  • Seeders 20
  • Leechers 1

Infohash : BADF1C3F70EF4F99B0A7A74D92B1CEB604857617

Quote:

General
Unique ID : 28729029404789907804122379141051904305 (0x159D028247340F5C4883D0B63A40F131)
Complete name : [RyRo]_Inazuma_Eleven_Orion_no_Kokuin_-_29v1_(720p)_[A40ACFA1].mkv
Format : Matroska
Format version : Version 4
File size : 378 MiB
Duration : 22 min 55 s
Overall bit rate : 2 306 kb/s
Encoded date : UTC 2019-05-15 03:34:54
Writing application : mkvmerge v33.1.0 ('Primrose') 64-bit
Writing library : libebml v1.3.7 + libmatroska v1.5.0
Attachments : Candarabolditalic.ttf / Candaraitalic.ttf / Dfheic.TTC / Negatori.ttf / SWEETASCANDY.TTF / BRITANIC.TTF / CANDARA.ttf / Candarab.ttf / CandaraBOLD.ttf

Video
ID : 2
Format : AVC
Format/Info : Advanced Video Codec
Format profile : [email protected]
Format settings : CABAC / 5 Ref Frames
Format settings, CABAC : Yes
Format settings, ReFrames : 5 frames
Codec ID : V_MPEG4/ISO/AVC
Duration : 22 min 54 s
Bit rate : 2 089 kb/s
Width : 1 280 pixels
Height : 720 pixels
Display aspect ratio : 16:9
Frame rate mode : Constant
Frame rate : 23.976 (24000/1001) FPS
Color space : YUV
Chroma subsampling : 4:2:0
Bit depth : 8 bits
Scan type : Progressive
Bits/(Pixel*Frame) : 0.095
Stream size : 342 MiB (91%)
Writing library : x264 core 146 r2538 121396c
Encoding settings : cabac=1 / ref=5 / deblock=1:-3:-3 / analyse=0x3:0x133 / me=umh / subme=10 / psy=1 / psy_rd=1.00:0.00 / mixed_ref=1 / me_range=32 / chroma_me=1 / trellis=2 / 8x8dct=1 / cqm=0 / deadzone=21,11 / fast_pskip=0 / chroma_qp_offset=-2 / threads=3 / lookahead_threads=1 / sliced_threads=0 / nr=0 / decimate=0 / interlaced=0 / bluray_compat=0 / constrained_intra=0 / bframes=5 / b_pyramid=2 / b_adapt=2 / b_bias=0 / direct=1 / weightb=1 / open_gop=0 / weightp=0 / keyint=240 / keyint_min=23 / scenecut=40 / intra_refresh=0 / rc_lookahead=40 / rc=crf / mbtree=1 / crf=20.5 / qcomp=0.60 / qpmin=0 / qpmax=69 / qpstep=4 / ip_ratio=1.40 / aq=1:1.00
Default : Yes
Forced : No

Audio
ID : 3
Format : AAC LC
Format/Info : Advanced Audio Codec Low Complexity
Codec ID : A_AAC-2
Duration : 22 min 54 s
Bit rate : 192 kb/s
Channel(s) : 2 channels
Channel layout : L R
Sampling rate : 48.0 kHz
Frame rate : 46.875 FPS (1024 SPF)
Compression mode : Lossy
Delay relative to video : -125 ms
Stream size : 31.5 MiB (8%)
Language : Japanese
Default : Yes
Forced : No

Text
ID : 1
Format : ASS
Codec ID : S_TEXT/ASS
Codec ID/Info : Advanced Sub Station Alpha
Duration : 22 min 49 s
Bit rate : 163 b/s
Count of elements : 444
Compression mode : Lossless
Stream size : 27.4 KiB (0%)
Language : English
Default : Yes
Forced : No





Files:

  • [RyRo]_Inazuma_Eleven_Orion_no_Kokuin_-_29v1_(720p)_[A40ACFA1].mkv (378.0 MB)

There are currently no comments. Feel free to leave one :)

Code:

  • //nyaa.tracker.wf:7777/announce
  • udp://open.stealth.si:80/announce
  • udp://tracker.opentrackr.org:1337/announce
  • udp://tracker.coppersurfer.tk:6969/announce
  • udp://exodus.desync.com:6969/announce
DOWNLOAD Torrent