Loading...

Along Came a Spider (2001) 720p Blu-Ray [Hindi DD 5.1 - English] ...

  • Category Movies
  • Type Dubs/Dual Audio
  • Language Hindi
  • Total size 1.1 GB
  • Uploaded By AKforty7
  • Downloads 1397
  • Last checked 2 months ago
  • Date uploaded 2 months ago
  • Seeders 40
  • Leechers 30

Along Came a Spider

ActionCrimeMysteryThriller

When a teacher kidnaps a girl from a prestigious school, homicide detective Alex Cross takes the case, teaming up with young security agent Jezzie Flannigan, in hopes of finding the girl and stopping the brutal psychopath. Every second counts as Alex and Jezzie attempt to track down the kidnapper before the spider claims another victim for its web.

Infohash : 3DCD41ED8107B78F9D21605588DE9AA5539040F5

Along Came a Spider (2001) 720p Blu-Ray [Hindi DD 5.1 - English] ~ Thomas Shelby


Visit Site ~ filmmaza.org


Join Telegram Channel ~ //t.me/digitalmaza





Media Info ~



General
Format : Matroska
Format version : Version 4
File size : 1.15 GiB
Duration : 1 h 43 min
Overall bit rate : 1 587 kb/s


Video
ID : 3
Format : AVC
Format/Info : Advanced Video Codec
Format profile : [email protected]
Format settings : CABAC / 4 Ref Frames
Format settings, CABAC : Yes
Format settings, RefFrames : 4 frames
Codec ID : V_MPEG4/ISO/AVC
Duration : 1 h 42 min
Bit rate : 856 kb/s
Width : 1 280 pixels
Height : 544 pixels
Display aspect ratio : 2.35:1
Frame rate mode : Constant
Frame rate : 23.976 (24000/1001) FPS
Color space : YUV
Chroma subsampling : 4:2:0
Bit depth : 8 bits
Scan type : Progressive
Bits/(Pixel*Frame) : 0.051
Stream size : 630 MiB (54%)
Title : Filmmaza.org
Default : Yes
Forced : No

Audio #1
ID : 2
Format : AC-3
Format/Info : Audio Coding 3
Commercial name : Dolby Digital
Codec ID : A_AC3
Duration : 1 h 43 min
Bit rate mode : Constant
Bit rate : 640 kb/s
Channel(s) : 6 channels
Channel layout : L R C LFE Ls Rs
Sampling rate : 48.0 kHz
Frame rate : 31.250 FPS (1536 SPF)
Bit depth : 16 bits
Compression mode : Lossy
Delay relative to video : -83 ms
Stream size : 473 MiB (40%)
Title : Filmmaza.org
Service kind : Complete Main
Default : Yes
Forced : Yes

Audio #2
ID : 4
Format : AAC LC
Format/Info : Advanced Audio Codec Low Complexity
Codec ID : A_AAC-2
Duration : 1 h 42 min
Bit rate : 92.0 kb/s
Channel(s) : 2 channels
Channel layout : L R
Sampling rate : 48.0 kHz
Frame rate : 46.875 FPS (1024 SPF)
Compression mode : Lossy
Delay relative to video : -83 ms
Stream size : 67.8 MiB (6%)
Title : Filmmaza.org
Language : English
Default : No
Forced : No

ScreenShots ~


















Files:

  • Along came a spider.mkv (1.1 GB)

There are currently no comments. Feel free to leave one :)

Code:

  • udp://tracker.coppersurfer.tk:6969/announce
  • udp://tracker.internetwarriors.net:1337/announce
  • udp://tracker.opentrackr.org:1337/announce
  • udp://9.rarbg.to:2710/announce
  • udp://exodus.desync.com:6969/announce
  • udp://explodie.org:6969/announce
  • //tracker2.itzmx.com:6961/announce
  • //tracker1.itzmx.com:8080/announce
  • udp://ipv4.tracker.harry.lu:80/announce
  • udp://denis.stalker.upeer.me:6969/announce
DOWNLOAD Torrent