Loading...

The.Flash.2014.S05E22.WEB.h264-TBS

  • Category TV
  • Type HD
  • Language English
  • Total size 388.4 MB
  • Uploaded By Dakshvv
  • Downloads 423
  • Last checked 10 hours ago
  • Date uploaded 4 days ago
  • Seeders 29
  • Leechers 6
80%
May 15, 2019, 2:00 am

The Flash

5x22 | Legacy

Barry faces off with his oldest, and most formidable nemesis, Reverse Flash.

Infohash : 49FE3E824F6D6D13AFC80DEA40C31F2EAE8AF37C



Show Title : Flash
Imdb Link : //www.imdb.com/title/tt8312922
Show Plot : Directed by Gregory Smith.  With Grant Gustin, Candice Patton, Danielle Panabaker, Carlos Valdes. Barry faces off with his oldest, and most formidable nemesis, Reverse Flash.
Episode : Season: 5, Episode: 22
Episode Title : Flash
Release Date : (2014) (TV Series)
Episode Review : //www.imdb.com/title/tt8312922



Code:


Video
ID : 1
Format : AVC
Format/Info : Advanced Video Codec
Format profile : [email protected]
Format settings : CABAC / 3 Ref Frames
Format settings, CABAC : Yes
Format settings, ReFrames : 3 frames
Codec ID : V_MPEG4/ISO/AVC
Duration : 42 min 26 s
Bit rate mode : Constant
Bit rate : 1 200 kb/s
Width : 960 pixels
Height : 540 pixels
Display aspect ratio : 16:9
Frame rate mode : Constant
Frame rate : 23.976 (24000/1001) FPS
Color space : YUV
Chroma subsampling : 4:2:0
Bit depth : 8 bits
Scan type : Progressive
Bits/(Pixel*Frame) : 0.097
Stream size : 359 MiB (93%)
Default : Yes
Forced : No

Audio
ID : 2
Format : AAC LC
Format/Info : Advanced Audio Codec Low Complexity
Codec ID : A_AAC-2
Duration : 42 min 26 s
Bit rate : 93.6 kb/s
Channel(s) : 2 channels
Channel layout : L R
Sampling rate : 44.1 kHz
Frame rate : 43.066 FPS (1024 SPF)
Compression mode : Lossy
Delay relative to video : -36 ms
Stream size : 28.4 MiB (7%)
Language : English
Default : Yes
Forced : No


Files:

The.Flash.2014.S05E22.WEB.h264-TBS[rarbg]
  • RARBG.txt (0.0 KB)
  • RARBG_DO_NOT_MIRROR.exe (0.1 KB)
  • the.flash.2014.s05e22.web.h264-tbs.mkv (388.4 MB)
  • the.flash.2014.s05e22.web.h264-tbs.nfo (0.0 KB)

There are currently no comments. Feel free to leave one :)

Code:

  • //tracker.trackerfix.com:80/announce
  • udp://9.rarbg.me:2760/announce
  • udp://9.rarbg.to:2790/announce
DOWNLOAD Torrent