Loading...

Eric Clapton - Audiophile Collection FLAC DR14 vtwin88cube

  • Category Music
  • Type Lossless
  • Language English
  • Total size 373.3 MB
  • Uploaded By vtwin88cube2
  • Downloads 446
  • Last checked 6 days ago
  • Date uploaded 1 week ago
  • Seeders 52
  • Leechers 4

Infohash : 6319FC28D6119D0570CCF6FD3EBC373595B7F5E3

foobar2000 1.4.3 / Dynamic Range Meter 1.1.1
log date: 2019-05-14 22:55:26

--------------------------------------------------------------------------------
Analyzed: Eric Clapton / Audiophile Collection
--------------------------------------------------------------------------------

DR Peak RMS Duration Track
--------------------------------------------------------------------------------
DR14 -0.30 dB -16.67 dB 3:36 01-Cocaine
DR14 -0.88 dB -15.76 dB 5:02 02-White Room
DR13 -0.53 dB -15.60 dB 4:24 03-I Shot The Sheriff
DR17 -1.31 dB -20.55 dB 3:29 04-Willie And The Hand Jive
DR17 -0.02 dB -19.66 dB 3:47 05-Get Ready
DR14 0.00 dB -16.61 dB 4:52 06-Motherless Children
DR13 0.00 dB -15.53 dB 3:28 07-Swing Low Street Chariot
DR14 -0.64 dB -16.42 dB 3:52 08-Lay Down Sally
DR15 -2.47 dB -20.23 dB 4:12 09-I Can't Hold Out
DR13 0.00 dB -14.77 dB 4:24 10-Knockin' On Heavens Door
DR14 0.00 dB -16.22 dB 3:41 11-Wonderful Tonight
DR16 -2.37 dB -21.20 dB 4:10 12-I Can't Stand It
DR13 -2.72 dB -19.02 dB 4:58 13-Let It Grow
DR15 -1.14 dB -17.92 dB 3:12 14-Steady Rollin' Man
DR13 -0.03 dB -16.03 dB 4:04 15-Mainline Florida
--------------------------------------------------------------------------------

Number of tracks: 15
Official DR value: DR14

Samplerate: 44100 Hz
Channels: 2
Bits per sample: 16
Bitrate: 878 kbps
Codec: FLAC
=======================================================

=========================







Thanks 4 Seeding!
Cheers!
88

Files:

Eric Clapton - Audiophile Collection (2019) [FLAC] [DR14] vtwin88cube
  • 00. Eric Clapton - Audiophile Collection.m3u (0.4 KB)
  • 01. Cocaine.flac (23.2 MB)
  • 02. White Room.flac (33.9 MB)
  • 03. I Shot The Sheriff.flac (29.4 MB)
  • 04. Willie And The Hand Jive.flac (18.9 MB)
  • 05. Get Ready.flac (19.5 MB)
  • 06. Motherless Children.flac (29.7 MB)
  • 07. Swing Low Street Chariot.flac (22.6 MB)
  • 08. Lay Down Sally.flac (21.9 MB)
  • 09. I Can't Hold Out.flac (20.8 MB)
  • 10. Knockin' On Heavens Door.flac (29.7 MB)
  • 11. Wonderful Tonight.flac (23.6 MB)
  • 12. I Can't Stand It.flac (23.5 MB)
  • 13. Let It Grow.flac (29.8 MB)
  • 14. Steady Rollin' Man.flac (19.6 MB)
  • 15. Mainline Florida.flac (26.3 MB)
  • auCDtect.txt (6.2 KB)
  • DR14.txt (1.7 KB)
  • Eric Clapton.png (740.8 KB)

There are currently no comments. Feel free to leave one :)

Code:

  • udp://tracker.openbittorrent.com:80/announce
  • udp://thetracker.org:80/announce
  • udp://exodus.desync.com:6969/announce
  • udp://denis.stalker.upeer.me:6969/announce
  • udp://tracker.torrent.eu.org:451/announce
  • udp://tracker.coppersurfer.tk:6969/announce
  • udp://tracker.internetwarriors.net:1337/announce
  • udp://9.rarbg.to:2710/announce
  • udp://open.stealth.si:80/announce
  • udp://explodie.org:6969/announce
  • udp://tracker.leechers-paradise.org:6969/announce
DOWNLOAD Torrent