Loading...

American Dad S16E05 Jeff and the Dank Ass Weed Factory 1080p AMZN...

  • Category TV
  • Type HEVC/x265
  • Language English
  • Total size 255.4 MB
  • Uploaded By Goki
  • Downloads 509
  • Last checked 4 months ago
  • Date uploaded 4 months ago
  • Seeders 24
  • Leechers 6
70%
May 14, 2019, 4:00 am

American Dad!

Jeff wins a tour through a mysterious weed factory and brings Stan along.

Infohash : 0FABAD8B301CD0CDE295A0761E15B0B71DC0BD08









Media Information



Unique ID : 36250547202778302754461735230884153236 (0x1B4599F7B2C099B4267B2213C06A0794)
Complete name : American Dad S16E05 Jeff and the Dank Ass Weed Factory 1080p AMZN Webrip x265 EAC3 5.1 - Goki [SEV].mkv
Format : Matroska
Format version : Version 4
File size : 255 MiB
Duration : 21 min 9 s
Overall bit rate : 1 688 kb/s
Movie name : American Dad S16E05 Jeff and the Dank Ass Weed Factory 1080p AMZN Webrip x265 EAC3 5.1 - Goki [SEV]
Encoded date : UTC 2019-05-15 11:37:05
Writing application : mkvmerge v28.2.0 ('The Awakening') 64-bit
Writing library : libebml v1.3.6 + libmatroska v1.4.9 / Lavf57.73.100
Writing application : Internet Friendly Media Encoder v7.7 ('Prism Ark')
Writing library : IFME v7.7 amd64 windows

Video
ID : 1
Format : HEVC
Format/Info : High Efficiency Video Coding
Format profile : Main [email protected]@Main
Codec ID : V_MPEGH/ISO/HEVC
Duration : 21 min 9 s
Bit rate : 1 046 kb/s
Width : 1 920 pixels
Height : 1 080 pixels
Display aspect ratio : 16:9
Frame rate mode : Constant
Frame rate : 23.976 (24000/1001) FPS
Color space : YUV
Chroma subsampling : 4:2:0
Bit depth : 10 bits
Bits/(Pixel*Frame) : 0.021
Stream size : 158 MiB (62%)
Writing library : x265 2.9+8-27d8424c799d:[Windows][MSVC 1915][64 bit] 10bit
Encoding settings : cpuid=1111039 / frame-threads=3 / numa-pools=8 / wpp / no-pmode / no-pme / no-psnr / no-ssim / log-level=2 / input-csp=1 / input-res=1920x1080 / interlace=0 / total-frames=0 / level-idc=0 / high-tier=1 / uhd-bd=0 / ref=4 / no-allow-non-conformance / no-repeat-headers / annexb / no-aud / no-hrd / info / hash=0 / no-temporal-layers / open-gop / min-keyint=23 / keyint=250 / gop-lookahead=0 / bframes=8 / b-adapt=2 / b-pyramid / bframe-bias=0 / rc-lookahead=100 / lookahead-slices=4 / scenecut=40 / radl=0 / no-intra-refresh / ctu=64 / min-cu-size=8 / no-rect / no-amp / max-tu-size=32 / tu-inter-depth=1 / tu-intra-depth=1 / limit-tu=0 / rdoq-level=2 / dynamic-rd=0.00 / no-ssim-rd / signhide / no-tskip / nr-intra=0 / nr-inter=0 / no-constrained-intra / no-strong-intra-smoothing / max-merge=3 / limit-refs=3 / limit-modes / me=3 / subme=5 / merange=57 / temporal-mvp / weightp / no-weightb / no-analyze-src-pics / deblock=0:0 / sao / no-sao-non-deblock / rd=4 / no-early-skip / rskip / no-fast-intra / no-tskip-fast / no-cu-lossless / no-b-intra / no-splitrd-skip / rdpenalty=0 / psy-rd=1.30 / psy-rdoq=2.00 / no-rd-refine / no-lossless / cbqpoffs=0 / crqpoffs=0 / rc=crf / crf=22.0 / qcomp=0.60 / qpstep=4 / stats-write=0 / stats-read=0 / ipratio=1.40 / pbratio=1.30 / aq-mode=2 / aq-strength=1.10 / cutree / zone-count=0 / no-strict-cbr / qg-size=32 / no-rc-grain / qpmax=69 / qpmin=0 / no-const-vbv / sar=1 / overscan=0 / videoformat=5 / range=0 / colorprim=2 / transfer=2 / colormatrix=2 / chromaloc=0 / display-window=0 / max-cll=0,0 / min-luma=0 / max-luma=1023 / log2-max-poc-lsb=8 / vui-timing-info / vui-hrd-info / slices=1 / no-opt-qp-pps / no-opt-ref-list-length-pps / no-multi-pass-opt-rps / scenecut-bias=0.05 / no-opt-cu-delta-qp / no-aq-motion / no-hdr / no-hdr-opt / no-dhdr10-opt / no-idr-recovery-sei / analysis-reuse-level=5 / scale-factor=0 / refine-intra=0 / refine-inter=0 / refine-mv=0 / no-limit-sao / ctu-info=0 / no-lowpass-dct / refine-mv-type=0 / copy-pic=1 / max-ausize-factor=1.0 / no-dynamic-refine / no-single-sei
Default : Yes
Forced : No

Audio
ID : 2
Format : E-AC-3
Format/Info : Enhanced AC-3
Commercial name : Dolby Digital Plus
Codec ID : A_EAC3
Duration : 21 min 9 s
Bit rate mode : Constant
Bit rate : 640 kb/s
Channel(s) : 6 channels
Channel layout : L R C LFE Ls Rs
Sampling rate : 48.0 kHz
Frame rate : 31.250 FPS (1536 SPF)
Compression mode : Lossy
Stream size : 96.8 MiB (38%)
Language : English
Service kind : Complete Main
Default : Yes
Forced : No

Text
ID : 3
Format : UTF-8
Codec ID : S_TEXT/UTF8
Codec ID/Info : UTF-8 Plain Text
Duration : 21 min 0 s
Bit rate : 97 b/s
Count of elements : 489
Stream size : 14.9 KiB (0%)
Language : English
Default : No
Forced : No

Source


AMZN CtrlHD

.........................................................................................................................................


We have no issue with individuals posting or re-uploading our torrents on a platform we aren't on. However, if this is something you'd like to do, please do so in a 'as-is' format. We ask that you do not create a new torrent, include all descriptions you see above including the SEV logo, tags, notes and screenshots. If you'd like to become a permanent poster on a website we don't post to, feel free to get in contact with a Sublime Encoded Video member.



We are recruiting/training new members for SEV & seedbox providers as well as people to help out with subtitles.
As you already know, we deliver quality, so you know the standard.
If you're interested, feel free to contact any of the team members.

Files:

  • American Dad S16E05 Jeff and the Dank Ass Weed Factory 1080p AMZN Webrip x265 EAC3 5.1 - Goki [SEV].mkv (255.4 MB)

Comments

Code:

  • udp://tracker.coppersurfer.tk:6969/announce
  • udp://tracker.opentrackr.org:1337/announce
  • udp://tracker.torrent.eu.org:451/announce
  • udp://tracker.internetwarriors.net:1337/announce
  • //tracker.opentrackr.org:1337/announce
  • udp://denis.stalker.upeer.me:6969/announce
  • udp://tracker.coppersurfer.tk:6969
  • udp://tracker.internetwarriors.net:1337
  • udp://9.rarbg.me:2720/announce
  • udp://explodie.org:6969/announce
  • //tracker3.itzmx.com:6961/announce
  • udp://tracker.cyberia.is:6969/announce
  • udp://thetracker.org/announce
  • udp://open.demonii.si:1337/announce
DOWNLOAD Torrent
X
Attention! Use a VPN when Accessing Free Content !
Your IP address is - Country:
Your Internet provider Tracks your Activity! Hide your IP ADDRESS with a VPN!
Bonus: Get Lag-Free Streams & No popups with any VPN Purchased !

Download Here