Loading...

Great British Menu S14E27 The Finals Main Course (1280x720p HD, 5...

  • Category TV
  • Type HD
  • Language English
  • Total size 2.1 GB
  • Uploaded By ElsonRoa
  • Downloads 63
  • Last checked 1 month ago
  • Date uploaded 1 month ago
  • Seeders 0
  • Leechers 0

Infohash : C53BF5AECC317E1C526D1A99AC5880507EF5C30D

Great British Menu S14E27 The Finals Main Course (1280x720p HD, 50fps, soft Eng subs)

It is the national finals of the Great British Menu and the eight regional champions compete to get their main courses onto the final menu of the banquet at Abbey Road Studios. They are cooking for the judges food critic Mathew Fort, cook and broadcaster Andi Oliver and restaurateur Oliver Peyton, as well as guest judge, former Wham! star Andrew Ridgeley.

As ever, the judges are looking for dishes laced with star quality and a good sprinkling of rock and roll wow factor worth of a banquet full of the music industry's finest. The main course is the course all the chefs want to win so they will all be bringing their A-game today to try and secure the third place on the banquet menu. With inventive dishes drawing inspiration from British music ranging from Sting to Ozzie Osbourne, the competition is fierce and the stakes are high as the heat is turned up in the kitchen. Only one dish will be awarded a place on the banquet menu - which one will it be?

First broadcast: 15 May 2019
Duration: 1 hour

Torrent dead? Request reseed at 1337xproxy.info or torrentgalaxy.org - or ask at elsonroa at tutanota.com



Media info:-
General
Format profile : Base Media
Codec ID : isom (isom/iso2/avc1/mp41)
File size : 2.14 GiB
Duration : 59mn 0s
Overall bit rate : 5 201 Kbps
Writing application : Lavf57.83.100

Video
ID : 1
Format : AVC
Format/Info : Advanced Video Codec
Format profile : [email protected]
Format settings, CABAC : Yes
Format settings, ReFrames : 4 frames
Codec ID : avc1
Codec ID/Info : Advanced Video Coding
Duration : 59mn 0s
Bit rate : 4 876 Kbps
Width : 1 280 pixels
Height : 720 pixels
Display aspect ratio : 16:9
Frame rate mode : Constant
Frame rate : 50.000 fps
Color space : YUV
Chroma subsampling : 4:2:0
Bit depth : 8 bits
Scan type : Progressive
Bits/(Pixel*Frame) : 0.106
Stream size : 2.01 GiB (94%)
Encoded date : UTC 1904-01-01 00:00:00
Tagged date : UTC 1904-01-01 00:00:00
Color range : Limited
Color primaries : BT.709
Transfer characteristics : BT.709
Matrix coefficients : BT.709

Audio
ID : 2
Format : AAC
Format/Info : Advanced Audio Codec
Format profile : LC
Codec ID : 40
Duration : 59mn 0s
Bit rate mode : Constant
Bit rate : 317 Kbps
Channel(s) : 2 channels
Channel positions : Front: L R
Sampling rate : 48.0 KHz
Frame rate : 46.875 fps (1024 spf)
Compression mode : Lossy
Stream size : 134 MiB (6%)
Language : English

Files:

Great British Menu S14E27 The Finals Main Course
  • About this torrent.txt (2.4 KB)
  • Great British Menu S14E27 The Finals Main Course.jpg (839.1 KB)
  • Great British Menu S14E27 The Finals Main Course.mp4 (2.1 GB)
  • Great British Menu S14E27 The Finals Main Course.srt (147.1 KB)
  • If this torrent is dead.txt (0.1 KB)
  • Torrent Downloaded From 1337xproxy.info.txt (0.0 KB)
  • [TGx]Downloaded from torrentgalaxy.org .txt (0.6 KB)

There are currently no comments. Feel free to leave one :)

Code:

  • udp://bt.xxx-tracker.com:2710/announce
  • udp://tracker.torrent.eu.org:451/announce
  • udp://tracker.iamhansen.xyz:2000/announce
  • udp://retracker.hotplug.ru:2710/announce
  • udp://tracker.birkenwald.de:6969/announce
  • udp://tracker.novg.net:6969/announce
  • udp://tracker.supertracker.net:1337/announce
  • udp://bigfoot1942.sektori.org:6969/announce
  • udp://carapax.net:6969/announce
DOWNLOAD Torrent