Loading...

The Man with the Iron Heart - HHhH - L uomo dal cuore di ferro (...

  • Category Movies
  • Type HD
  • Language English
  • Total size 2.3 GB
  • Uploaded By robbyrs
  • Downloads 979
  • Last checked 1 month ago
  • Date uploaded 2 months ago
  • Seeders 97
  • Leechers 8

HHhH

ActionHistoryThriller

1942 : The Third Reich is at his peak. The Czech resistance in London decides to plan the most ambitious military operation of WWII : Anthropoid. Two young recruits in their late twenties, Joseph Gacik and Jan Kubis, are sent to Prague to assassinate the most ruthless Nazi leader : Reinhardt Heydrich, Head of the SS, the Gestapo and the architect of the "Final Solution".

Infohash : E3AB8912AB0C6A52A507720B3F02B9D2F88DAFD9

The Man with the Iron Heart - HHhH - L uomo dal cuore di ferro (2017).720p.H264.italian.english.Ac3-5.1.sub.ita-MIRCrew


NO FOUND ONLY ORIGINAL RELEASE

My release is always in double track audio italian and Original audio
for select it use VLC or dvd player home
not use wmp

L uomo dal cuore di ferro - HHhH - The Man with the Iron Heart (2017)

Quality MIRCrew on HD 720p da 2,3 gb









Titolo originale HHhH
Lingua originale inglese
Paese di produzione Francia, Regno Unito, Belgio, Stati Uniti d'America
Anno 2017
Durata 119 min
Genere drammatico, thriller, guerra, biografico
Regia Cédric Jimenez
Soggetto Laurent Binet (romanzo)
Sceneggiatura Audrey Diwan, David Farr, Cédric Jimenez



Jason Clarke: Reinhard Heydrich
Rosamund Pike: Lina Von Osten
Jack O'Connell: Jan Kubiš
Jack Reynor: Jozef Gabčík
Stephen Graham: Heinrich Himmler
Mia Wasikowska: Anna Novak
Gilles Lellouche: Václav Morávek
Thomas M. Wright: Josef Valcik
Barry Atsma: Frank
Enzo Cilenti: Adolf Opálka
Geoff Bell: Muller
Volker Bruch: Schellenberg
Noah Jupe: Ata Moravek



Nel 1942, quando il Terzo Reich è all'apice del suo potere, la resistenza cecoslovacca a Londra decide di pianificare un'ambiziosa operazione militare, denominata Operazione Anthropoid. I paracadutisti Jozef Gabčík e Jan Kubiš vengono inviati a Praga per assassinare il più spietato leader nazista Reinhard Heydrich.



As the German Fascists expand their borders, scorching Europe from end to end, two brave Czechs of the Resistance prepare for a suicide mission to assassinate Reinhard Heydrich, the hideous mastermind behind the "Final Solution".







General
Unique ID : 222080707370559005646307330813140053788 (0xA713303D934CAFB197198DCD6836AF1C)
Complete name : L'uomo dal cuore di ferro - HHhH (2017).720p.h264.ita.eng.sub.ita-MIRCrew\L'uomo dal cuore di ferro - HHhH (2017).720p.h264.ita.eng.sub.ita-MIRCrew.mkv
Format : Matroska
Format version : Version 2
File size : 2.28 GiB
Duration : 1h 59mn
Overall bit rate : 2 719 Kbps
Movie name : MIRCrew
Encoded date : UTC 2019-05-15T11:47:11Z
Writing application : mkvmerge v5.8.0 ('No Sleep / Pillow') built on Sep 2 2012 15:37:04
Writing library : Lavf55.12.0

Video
ID : 1
Format : AVC
Format/Info : Advanced Video Codec
Format profile : [email protected]
Format settings, CABAC : Yes
Format settings, ReFrames : 4 frames
Codec ID : V_MPEG4/ISO/AVC
Duration : 1h 59mn
Bit rate : 1 900 Kbps
Width : 1 280 pixels
Height : 544 pixels
Display aspect ratio : 2.35:1
Frame rate : 24.000 fps
Color space : YUV
Chroma subsampling : 4:2:0
Bit depth : 8 bits
Scan type : Progressive
Bits/(Pixel*Frame) : 0.114
Stream size : 1.54 GiB (67%)
Title : MIRCrew
Writing library : x264 core 142 r2479 dd79a61
Encoding settings : cabac=1 / ref=1 / deblock=1:0:0 / analyse=0x1:0x111 / me=hex / subme=2 / psy=1 / psy_rd=1.00:0.00 / mixed_ref=0 / me_range=16 / chroma_me=1 / trellis=0 / 8x8dct=0 / cqm=0 / deadzone=21,11 / fast_pskip=1 / chroma_qp_offset=0 / threads=9 / lookahead_threads=3 / sliced_threads=0 / nr=0 / decimate=1 / interlaced=0 / bluray_compat=0 / constrained_intra=0 / bframes=3 / b_pyramid=2 / b_adapt=1 / b_bias=0 / direct=1 / weightb=1 / open_gop=0 / weightp=1 / keyint=240 / keyint_min=24 / scenecut=40 / intra_refresh=0 / rc_lookahead=10 / rc=abr / mbtree=1 / bitrate=1900 / ratetol=1.0 / qcomp=0.60 / qpmin=0 / qpmax=69 / qpstep=4 / vbv_maxrate=20000 / vbv_bufsize=25000 / nal_hrd=none / filler=0 / ip_ratio=1.40 / aq=1:1.00
Language : Italian
Default : Yes
Forced : No
Color primaries : BT.709-5, BT.1361, IEC 61966-2-4, SMPTE RP177
Transfer characteristics : BT.709-5, BT.1361
Matrix coefficients : BT.709-5, BT.1361, IEC 61966-2-4 709, SMPTE RP177

Audio #1
ID : 2
Format : AC-3
Format/Info : Audio Coding 3
Mode extension : CM (complete main)
Codec ID : A_AC3
Duration : 1h 59mn
Bit rate mode : Constant
Bit rate : 448 Kbps
Channel(s) : 6 channels
Channel positions : Front: L C R, Side: L R, LFE
Sampling rate : 48.0 KHz
Bit depth : 16 bits
Compression mode : Lossy
Delay relative to video : -5ms
Stream size : 384 MiB (16%)
Title : Ita Ac3 5.1
Language : Italian
Default : Yes
Forced : No

Audio #2
ID : 3
Format : AC-3
Format/Info : Audio Coding 3
Mode extension : CM (complete main)
Codec ID : A_AC3
Duration : 1h 59mn
Bit rate mode : Constant
Bit rate : 384 Kbps
Channel(s) : 6 channels
Channel positions : Front: L C R, Side: L R, LFE
Sampling rate : 48.0 KHz
Bit depth : 16 bits
Compression mode : Lossy
Delay relative to video : -83ms
Stream size : 329 MiB (14%)
Title : Eng Ac3 5.1
Language : English
Default : No
Forced : No







Files:

L'uomo dal cuore di ferro - HHhH (2017).720p.h264.ita.eng.sub.ita-MIRCrew
  • L'uomo dal cuore di ferro - HHhH (2017).720p.h264.ita.eng.sub.ita-MIRCrew.ita.srt (57.2 KB)
  • L'uomo dal cuore di ferro - HHhH (2017).720p.h264.ita.eng.sub.ita-MIRCrew.mkv (2.3 GB)
  • L'uomo dal cuore di ferro - HHhH (2017).720p.h264.ita.eng.sub.ita-MIRCrew.srt (1.6 KB)

There are currently no comments. Feel free to leave one :)

Code:

  • udp://tracker.coppersurfer.tk:6969/announce
  • udp://tracker.torrent.eu.org:451/announce
  • udp://tracker.pirateparty.gr:6969/announce
  • udp://tracker.opentrackr.org:1337/announce
  • udp://tracker.leechers-paradise.org:6969/announce
  • udp://tracker.eddie4.nl:6969/announce
  • udp://shadowshq.yi.org:6969/announce
  • udp://shadowshq.eddie4.nl:6969/announce
  • udp://inferno.demonoid.pw:3391/announce
  • udp://eddie4.nl:6969/announce
  • udp://9.rarbg.to:2730/announce
  • udp://9.rarbg.com:2710/announce
  • udp://9.rarbg.me:2780/announce
  • udp://62.138.0.158:6969/announce
  • udp://151.80.120.114:2710/announce
DOWNLOAD Torrent