Loading...

Mindhunter (2017) Season 01 S01 REPACK (2160p NF WEBRip NVENC HEV...

  • Category TV
  • Type HEVC/x265
  • Language English
  • Total size 15.0 GB
  • Uploaded By UTRCorp
  • Downloads 88
  • Last checked 1 month ago
  • Date uploaded 2 months ago
  • Seeders 4
  • Leechers 0

Infohash : 10115334A88A75051DD41FA3E32B47A21BF87680


This torrent replaces the 2160p Mindhunter previously posted which had HDR conversion issue.

Media Information


Code:

General
Format                                   : Matroska
Format version                           : Version 4 / Version 2
File size                                : 1.59 GiB
Duration                                 : 52 min 51 s
Overall bit rate                         : 4 306 kb/s
Movie name                               : Mindhunter S01E10  (2160p NV 10bit Joy)[UTR]
Encoded date                             : UTC 2019-05-15 16:27:52
Writing application                      : mkvmerge v31.0.0 ('Dolores In A Shoestand') 64-bit
Writing library                          : libebml v1.3.6 + libmatroska v1.4.9
Writing frontend                         : StaxRip v2.0.0.1, a JoyBell Encode

Video
ID                                       : 1
Format                                   : HEVC
Format/Info                              : High Efficiency Video Coding
Format profile                           : Main [email protected]@High
Codec ID                                 : V_MPEGH/ISO/HEVC
Duration                                 : 52 min 24 s
Bit rate                                 : 3 953 kb/s
Width                                    : 3 840 pixels
Height                                   : 1 744 pixels
Display aspect ratio                     : 2.2:1
Frame rate mode                          : Constant
Frame rate                               : 23.976 (24000/1001) FPS
Color space                              : YUV
Chroma subsampling                       : 4:2:0
Bit depth                                : 10 bits
Bits/(Pixel*Frame)                       : 0.025
Stream size                              : 1.45 GiB (91%)
Default                                  : Yes
Forced                                   : No
Color range                              : Limited
Matrix coefficients                      : BT.709

Audio
ID                                       : 2
Format                                   : AC-3
Format/Info                              : Audio Coding 3
Mode extension                           : CM (complete main)
Format settings, Endianness              : Big
Codec ID                                 : A_AC3
Duration                                 : 52 min 51 s
Bit rate mode                            : Constant
Bit rate                                 : 384 kb/s
Channel(s)                               : 6 channels
Channel positions                        : Front: L C R, Side: L R, LFE
Sampling rate                            : 48.0 kHz
Frame rate                               : 31.250 FPS (1536 spf)
Bit depth                                : 16 bits
Compression mode                         : Lossy
Stream size                              : 145 MiB (9%)
Language                                 : English
Default                                  : No
Forced                                   : No

Subtitle #1
ID                                       : 3
Format                                   : UTF-8
Codec ID                                 : S_TEXT/UTF8
Codec ID/Info                            : UTF-8 Plain Text
Duration                                 : 51 min 18 s
Bit rate                                 : 86 b/s
Count of elements                        : 862
Stream size                              : 32.5 KiB (0%)
Title                                    : SDH
Language                                 : English
Default                                  : No
Forced                                   : No

Subtitle #2
ID                                       : 4
Format                                   : UTF-8
Codec ID                                 : S_TEXT/UTF8
Codec ID/Info                            : UTF-8 Plain Text
Duration                                 : 49 min 18 s
Bit rate                                 : 138 b/s
Count of elements                        : 812
Stream size                              : 50.0 KiB (0%)
Language                                 : Arabic
Default                                  : No
Forced                                   : No

Subtitle #3
ID                                       : 5
Format                                   : UTF-8
Codec ID                                 : S_TEXT/UTF8
Codec ID/Info                            : UTF-8 Plain Text
Duration                                 : 49 min 10 s
Bit rate                                 : 75 b/s
Count of elements                        : 770
Stream size                              : 27.3 KiB (0%)
Language                                 : French
Default                                  : No
Forced                                   : No

Subtitle #4
ID                                       : 6
Format                                   : UTF-8
Codec ID                                 : S_TEXT/UTF8
Codec ID/Info                            : UTF-8 Plain Text
Duration                                 : 49 min 10 s
Bit rate                                 : 68 b/s
Count of elements                        : 787
Stream size                              : 24.7 KiB (0%)
Language                                 : Polish
Default                                  : No
Forced                                   : No

Subtitle #5
ID                                       : 7
Format                                   : UTF-8
Codec ID                                 : S_TEXT/UTF8
Codec ID/Info                            : UTF-8 Plain Text
Duration                                 : 49 min 18 s
Bit rate                                 : 79 b/s
Count of elements                        : 812
Stream size                              : 28.8 KiB (0%)
Title                                    : Traditional
Language                                 : Chinese
Default                                  : No
Forced                                   : No



Source Information


Code:

Release: Mindhunter.S01.2160p.NF.WEBRip.DD5.1.x264-NTb[rartv] [74.9 GB]


Code:


Note From UTR
We have no issue with individuals posting or re-uploading our torrents on a platform we aren't on. However, if this is something you'd like to do, please do so in a 'as-is' format. We ask that you do not create a new torrent, include all descriptions you see above including the UTR logo, tags, notes and screenshots. If you'd like to become a permanent poster on a website we don't post to, feel free to get in contact with a UniTeam member.

If possible please donate: BTC 1QA5fum5AyXvWzdVCkQzUNvw3Ef15fHRaR





Files:

Mindhunter Season 1 (2160p NV 10bit Joy)
  • Mindhunter S01E01 (2160p NV 10bit Joy).mkv (1.8 GB)
  • folder.jpg (7.8 KB)
  • How to play HEVC (THIS FILE).txt (3.4 KB)
  • Encoded by JoyBell (UTR).txt (3.2 KB)
  • Mindhunter S01E02 (2160p NV 10bit Joy).mkv (1.7 GB)
  • Mindhunter S01E03 (2160p NV 10bit Joy).mkv (1.4 GB)
  • Mindhunter S01E04 (2160p NV 10bit Joy).mkv (1.6 GB)
  • Mindhunter S01E05 (2160p NV 10bit Joy).mkv (1.2 GB)
  • Mindhunter S01E06 (2160p NV 10bit Joy).mkv (1.0 GB)
  • Mindhunter S01E07 (2160p NV 10bit Joy).mkv (1.6 GB)
  • Mindhunter S01E08 (2160p NV 10bit Joy).mkv (1.6 GB)
  • Mindhunter S01E09 (2160p NV 10bit Joy).mkv (1.4 GB)
  • Mindhunter S01E10 (2160p NV 10bit Joy).mkv (1.6 GB)
  • Ninite K-Lite Codecs Unattended Silent Installer and Updater.website (0.5 KB)

Comments

Code:

  • udp://tracker.coppersurfer.tk:6969/announce
  • udp://9.rarbg.com:2710/announce
  • udp://9.rarbg.to:2710/announce
  • udp://tracker.torrent.eu.org:451/announce
  • udp://exodus.desync.com:6969/announce
  • udp://tracker.tiny-vps.com:6969/announce
  • udp://open.demonii.si:1337/announce
  • udp://tracker.opentrackr.org:1337/announce
  • udp://tracker.internetwarriors.net:1337/announce
DOWNLOAD Torrent