Loading...

Mindhunter (2017) Season 01 S01 (1080p NF WEBRip NVENC HEVC 10bit...

  • Category TV
  • Type HEVC/x265
  • Language English
  • Total size 4.8 GB
  • Uploaded By UTRCorp
  • Downloads 92
  • Last checked 20 hours ago
  • Date uploaded 4 days ago
  • Seeders 5
  • Leechers 4

Infohash : 627977ABD71639DE9492C7EBCC78CB4E48EA2E08



This torrent replaces the 1080 Mindhunter previously posted which had HDR conversion issue.

Media Information


Code:

General
Format                                   : Matroska
Format version                           : Version 4 / Version 2
File size                                : 607 MiB
Duration                                 : 1 h 0 min
Overall bit rate                         : 1 413 kb/s
Movie name                               : Mindhunter S01E01  (1080p NV q22 Joy)[UTR]
Encoded date                             : UTC 2019-05-15 01:29:37
Writing application                      : mkvmerge v31.0.0 ('Dolores In A Shoestand') 64-bit
Writing library                          : libebml v1.3.6 + libmatroska v1.4.9
Writing frontend                         : StaxRip v2.0.0.1, a JoyBell Encode

Video
ID                                       : 1
Format                                   : HEVC
Format/Info                              : High Efficiency Video Coding
Format profile                           : Main [email protected]@Main
Codec ID                                 : V_MPEGH/ISO/HEVC
Duration                                 : 59 min 33 s
Bit rate                                 : 1 235 kb/s
Width                                    : 1 920 pixels
Height                                   : 872 pixels
Display aspect ratio                     : 2.2:1
Frame rate mode                          : Constant
Frame rate                               : 23.976 (24000/1001) FPS
Color space                              : YUV
Chroma subsampling                       : 4:2:0
Bit depth                                : 10 bits
Bits/(Pixel*Frame)                       : 0.031
Stream size                              : 526 MiB (87%)
Default                                  : Yes
Forced                                   : No
Color range                              : Limited
Matrix coefficients                      : BT.709

Audio
ID                                       : 2
Format                                   : AAC
Format/Info                              : Advanced Audio Codec
Format profile                           : HE-AAC / LC
Codec ID                                 : A_AAC
Duration                                 : 1 h 0 min
Bit rate                                 : 185 kb/s
Channel(s)                               : 6 channels
Channel positions                        : Front: L C R, Side: L R, LFE
Sampling rate                            : 48.0 kHz / 24.0 kHz
Frame rate                               : 23.438 FPS (1024 spf)
Compression mode                         : Lossy
Delay relative to video                  : 31 ms
Stream size                              : 79.3 MiB (13%)
Language                                 : English
Default                                  : No
Forced                                   : No

Subtitle #1
ID                                       : 3
Format                                   : UTF-8
Codec ID                                 : S_TEXT/UTF8
Codec ID/Info                            : UTF-8 Plain Text
Duration                                 : 57 min 9 s
Bit rate                                 : 86 b/s
Count of elements                        : 963
Stream size                              : 36.2 KiB (0%)
Title                                    : SDH
Language                                 : English
Default                                  : No
Forced                                   : No

Subtitle #2
ID                                       : 4
Format                                   : UTF-8
Codec ID                                 : S_TEXT/UTF8
Codec ID/Info                            : UTF-8 Plain Text
Duration                                 : 56 min 53 s
Bit rate                                 : 142 b/s
Count of elements                        : 990
Stream size                              : 59.6 KiB (0%)
Language                                 : Arabic
Default                                  : No
Forced                                   : No

Subtitle #3
ID                                       : 5
Format                                   : UTF-8
Codec ID                                 : S_TEXT/UTF8
Codec ID/Info                            : UTF-8 Plain Text
Duration                                 : 56 min 53 s
Bit rate                                 : 78 b/s
Count of elements                        : 956
Stream size                              : 32.8 KiB (0%)
Language                                 : French
Default                                  : No
Forced                                   : No

Subtitle #4
ID                                       : 6
Format                                   : UTF-8
Codec ID                                 : S_TEXT/UTF8
Codec ID/Info                            : UTF-8 Plain Text
Duration                                 : 56 min 53 s
Bit rate                                 : 70 b/s
Count of elements                        : 959
Stream size                              : 29.3 KiB (0%)
Language                                 : Polish
Default                                  : No
Forced                                   : No

Subtitle #5
ID                                       : 7
Format                                   : UTF-8
Codec ID                                 : S_TEXT/UTF8
Codec ID/Info                            : UTF-8 Plain Text
Duration                                 : 56 min 53 s
Bit rate                                 : 82 b/s
Count of elements                        : 991
Stream size                              : 34.5 KiB (0%)
Title                                    : Traditional
Language                                 : Chinese
Default                                  : No
Forced                                   : No



Source Information


Code:

Release: Mindhunter.S01.2160p.NF.WEBRip.DD5.1.x264-NTb[rartv] [74.9 GB]


Code:


Note From UTR
We have no issue with individuals posting or re-uploading our torrents on a platform we aren't on. However, if this is something you'd like to do, please do so in a 'as-is' format. We ask that you do not create a new torrent, include all descriptions you see above including the UTR logo, tags, notes and screenshots. If you'd like to become a permanent poster on a website we don't post to, feel free to get in contact with a UniTeam member.

If possible please donate: BTC 1QA5fum5AyXvWzdVCkQzUNvw3Ef15fHRaR






Files:

Mindhunter Season 1 (1080p NV q22 Joy)
  • Mindhunter S01E01 (1080p NV q22 Joy).mkv (606.7 MB)
  • folder.jpg (7.8 KB)
  • How to play HEVC (THIS FILE).txt (3.4 KB)
  • Encoded by JoyBell (UTR).txt (3.2 KB)
  • Mindhunter S01E02 (1080p NV q22 Joy).mkv (560.0 MB)
  • Mindhunter S01E03 (1080p NV q22 Joy).mkv (473.2 MB)
  • Mindhunter S01E04 (1080p NV q22 Joy).mkv (525.4 MB)
  • Mindhunter S01E05 (1080p NV q22 Joy).mkv (401.1 MB)
  • Mindhunter S01E06 (1080p NV q22 Joy).mkv (314.4 MB)
  • Mindhunter S01E07 (1080p NV q22 Joy).mkv (538.5 MB)
  • Mindhunter S01E08 (1080p NV q22 Joy).mkv (552.4 MB)
  • Mindhunter S01E09 (1080p NV q22 Joy).mkv (432.6 MB)
  • Mindhunter S01E10 (1080p NV q22 Joy).mkv (516.8 MB)
  • Ninite K-Lite Codecs Unattended Silent Installer and Updater.website (0.5 KB)

There are currently no comments. Feel free to leave one :)

Code:

  • udp://tracker.coppersurfer.tk:6969/announce
  • udp://9.rarbg.com:2710/announce
  • udp://9.rarbg.to:2710/announce
  • udp://tracker.torrent.eu.org:451/announce
  • udp://exodus.desync.com:6969/announce
  • udp://tracker.tiny-vps.com:6969/announce
  • udp://open.demonii.si:1337/announce
  • udp://tracker.opentrackr.org:1337/announce
  • udp://tracker.internetwarriors.net:1337/announce
DOWNLOAD Torrent