Loading...

Star Wars Resistance (2018) Season 01 S01 (1080p WEB-DL x265 HEVC...

  • Category TV
  • Type HEVC/x265
  • Language English
  • Total size 5.9 GB
  • Uploaded By UTRCorp
  • Downloads 210
  • Last checked 7 hours ago
  • Date uploaded 4 days ago
  • Seeders 15
  • Leechers 5

Infohash : A48904D5C094BC08C328C54A01D7336BCB4DCA93


Media Information

Code:

General
Format : Matroska
Format version : Version 4 / Version 2
File size : 562 MiB
Duration : 43 min 24 s
Overall bit rate : 1 810 kb/s
Encoded date : UTC 2018-10-26 19:36:46
Writing application : mkvmerge v27.0.0 ('Metropolis') 64-bit
Writing library : libebml v1.3.6 + libmatroska v1.4.9

Video
ID : 1
Format : HEVC
Format/Info : High Efficiency Video Coding
Format profile : Main [email protected]@Main
Codec ID : V_MPEGH/ISO/HEVC
Duration : 43 min 24 s
Bit rate : 1 424 kb/s
Width : 1 920 pixels
Height : 1 080 pixels
Display aspect ratio : 16:9
Frame rate mode : Constant
Frame rate : 23.976 (24000/1001) FPS
Color space : YUV
Chroma subsampling : 4:2:0
Bit depth : 10 bits
Bits/(Pixel*Frame) : 0.029
Stream size : 442 MiB (79%)
Writing library : x265 2.8+74-fd517ae68f93:[Windows][MSVC 1915][64 bit] 10bit
Encoding settings : cpuid=1111039 / frame-threads=4 / numa-pools=16 / wpp / no-pmode / no-pme / no-psnr / no-ssim / log-level=2 / input-csp=1 / input-res=1920x1080 / interlace=0 / total-frames=62442 / level-idc=0 / high-tier=1 / uhd-bd=0 / ref=4 / no-allow-non-conformance / no-repeat-headers / annexb / no-aud / no-hrd / info / hash=0 / no-temporal-layers / open-gop / min-keyint=23 / keyint=250 / gop-lookahead=0 / bframes=4 / b-adapt=2 / b-pyramid / bframe-bias=0 / rc-lookahead=25 / lookahead-slices=4 / scenecut=40 / radl=0 / no-intra-refresh / ctu=64 / min-cu-size=8 / rect / no-amp / max-tu-size=32 / tu-inter-depth=1 / tu-intra-depth=1 / limit-tu=0 / rdoq-level=1 / dynamic-rd=0.00 / no-ssim-rd / signhide / no-tskip / nr-intra=0 / nr-inter=0 / no-constrained-intra / no-strong-intra-smoothing / max-merge=3 / limit-refs=3 / limit-modes / me=3 / subme=3 / merange=57 / temporal-mvp / weightp / no-weightb / no-analyze-src-pics / deblock=-1:-1 / sao / no-sao-non-deblock / rd=4 / no-early-skip / rskip / no-fast-intra / no-tskip-fast / no-cu-lossless / no-b-intra / no-splitrd-skip / rdpenalty=0 / psy-rd=0.35 / psy-rdoq=1.00 / no-rd-refine / no-lossless / cbqpoffs=0 / crqpoffs=0 / rc=crf / crf=24.0 / qcomp=0.60 / qpstep=4 / stats-write=0 / stats-read=0 / ipratio=1.40 / pbratio=1.30 / aq-mode=3 / aq-strength=1.00 / cutree / zone-count=0 / no-strict-cbr / qg-size=32 / no-rc-grain / qpmax=69 / qpmin=0 / no-const-vbv / sar=0 / overscan=0 / videoformat=5 / range=0 / colorprim=2 / transfer=2 / colormatrix=2 / chromaloc=0 / display-window=0 / max-cll=0,0 / min-luma=0 / max-luma=1023 / log2-max-poc-lsb=8 / vui-timing-info / vui-hrd-info / slices=1 / no-opt-qp-pps / no-opt-ref-list-length-pps / no-multi-pass-opt-rps / scenecut-bias=0.05 / no-opt-cu-delta-qp / no-aq-motion / no-hdr / no-hdr-opt / no-dhdr10-opt / no-idr-recovery-sei / analysis-reuse-level=5 / scale-factor=0 / refine-intra=0 / refine-inter=0 / refine-mv=0 / no-limit-sao / ctu-info=0 / no-lowpass-dct / refine-mv-type=0 / copy-pic=1 / max-ausize-factor=1.0 / no-dynamic-refine / no-single-sei
Language : English
Default : Yes
Forced : No

Audio
ID : 2
Format : AC-3
Format/Info : Audio Coding 3
Mode extension : CM (complete main)
Format settings, Endianness : Big
Codec ID : A_AC3
Duration : 43 min 24 s
Bit rate mode : Constant
Bit rate : 384 kb/s
Channel(s) : 6 channels
Channel positions : Front: L C R, Side: L R, LFE
Sampling rate : 48.0 kHz
Frame rate : 31.250 FPS (1536 spf)
Bit depth : 16 bits
Compression mode : Lossy
Stream size : 119 MiB (21%)
Language : English
Default : Yes
Forced : No

Subtitle
ID : 3
Format : UTF-8
Codec ID : S_TEXT/UTF8
Codec ID/Info : UTF-8 Plain Text
Duration : 42 min 58 s
Bit rate : 92 b/s
Count of elements : 1119
Stream size : 29.1 KiB (0%)
Language : English
Default : Yes
Forced : No



Source Information

Code:

Release: Unknown Source/NO-GROUP



Code:


Note From UTR
We have no issue with individuals posting or re-uploading our torrents on a platform we aren't on. However, if this is something you'd like to do, please do so in a 'as-is' format. We ask that you do not create a new torrent, include all descriptions you see above including the UTR logo, tags, notes and screenshots. If you'd like to become a permanent poster on a website we don't post to, feel free to get in contact with a UniTeam member.

If possible please donate: BTC 1QA5fum5AyXvWzdVCkQzUNvw3Ef15fHRaR





Files:

Star Wars Resistance (2018) Season 01 S01 (1080p WEB-DL x265 HEVC 10bit AC3 5.1 Qman) [UTR]
  • Star.Wars.Resistance.S01E01.1080p.WEB-DL.x265.10bit.AC3.5.1-Qman[UTR].mkv (561.9 MB)
  • Star.Wars.Resistance.S01E02.1080p.WEB-DL.x265.10bit.AC3.5.1-Qman[UTR].mkv (286.4 MB)
  • Star.Wars.Resistance.S01E03.1080p.WEB-DL.x265.10bit.AC3.5.1-Qman[UTR].mkv (266.1 MB)
  • Star.Wars.Resistance.S01E04.1080p.WEB-DL.x265.10bit.AC3.5.1-Qman[UTR].mkv (251.3 MB)
  • Star.Wars.Resistance.S01E05.1080p.WEB-DL.x265.10bit.AC3.5.1-Qman[UTR].mkv (360.6 MB)
  • Star.Wars.Resistance.S01E06.1080p.WEB-DL.x265.10bit.AC3.5.1-Qman[UTR].mkv (364.3 MB)
  • Star.Wars.Resistance.S01E07.1080p.WEB-DL.x265.10bit.AC3.5.1-Qman[UTR].mkv (311.8 MB)
  • Star.Wars.Resistance.S01E08.1080p.WEB-DL.x265.10bit.AC3.5.1-Qman[UTR].mkv (260.5 MB)
  • Star.Wars.Resistance.S01E09.1080p.WEB-DL.x265.10bit.AC3.5.1-Qman[UTR].mkv (279.5 MB)
  • Star.Wars.Resistance.S01E10.1080p.WEB-DL.x265.10bit.AC3.5.1-Qman[UTR].mkv (296.9 MB)
  • Star.Wars.Resistance.S01E11.1080p.WEB-DL.x265.10bit.AC3.5.1-Qman[UTR].mkv (345.6 MB)
  • Star.Wars.Resistance.S01E12.1080p.WEB-DL.x265.10bit.AC3.5.1-Qman[UTR].mkv (268.7 MB)
  • Star.Wars.Resistance.S01E13.1080p.WEB-DL.x265.10bit.AC3.5.1-Qman[UTR].mkv (269.9 MB)
  • Star.Wars.Resistance.S01E14.1080p.WEB-DL.x265.10bit.AC3.5.1-Qman[UTR].mkv (244.2 MB)
  • Star.Wars.Resistance.S01E15.1080p.WEB-DL.x265.10bit.AC3.5.1-Qman[UTR].mkv (282.2 MB)
  • Star.Wars.Resistance.S01E16.1080p.WEB-DL.x265.10bit.AC3.5.1-Qman[UTR].mkv (254.8 MB)
  • Star.Wars.Resistance.S01E17.1080p.WEB-DL.x265.10bit.AC3.5.1-Qman[UTR].mkv (260.5 MB)
  • Star.Wars.Resistance.S01E18.1080p.WEB-DL.x265.10bit.AC3.5.1-Qman[UTR].mkv (278.1 MB)
  • Star.Wars.Resistance.S01E19.1080p.WEB-DL.x265.10bit.AC3.5.1-Qman[UTR].mkv (266.6 MB)
  • Star.Wars.Resistance.S01E20.1080p.WEB-DL.x265.10bit.AC3.5.1-Qman[UTR].mkv (282.2 MB)

Comments

Code:

  • udp://9.rarbg.com:2710/announce
  • udp://tracker.opentrackr.org:1337/announce
  • udp://tracker.torrent.eu.org:451/announce
  • udp://tracker.leechers-paradise.org:6969/announce
  • udp://tracker.coppersurfer.tk:6969/announce
DOWNLOAD Torrent