Loading...

Great British Menu S14E28 The Finals Dessert (1280x720p HD, 50fps...

  • Category TV
  • Type HD
  • Language English
  • Total size 2.2 GB
  • Uploaded By ElsonRoa
  • Downloads 94
  • Last checked 1 month ago
  • Date uploaded 1 month ago
  • Seeders 7
  • Leechers 1

Infohash : 0343335E9B8E7BFA38C277D3991B91BCD7354829

Great British Menu S14E28 The Finals Dessert (1280x720p HD, 50fps, soft Eng subs)

Note to those following this series: The final of this show is tomorrow night, 17 May. But I will be unable to upload more torrents until Saturday 25 May. I will add this episode then for those who have been unable to find a copy elsewhere. Apologies.



Some of the country's finest chefs compete over the final place cooking at a banquet celebrating the brilliance of British popular music, held at Abbey Road studios. Each rival needs to cook a dessert to impress a panel of expert judges, along with guest judge Peter Hook - Joy Division and New Order bassist, and pioneer of Britain's Madchester scene.

With only one place left on the banquet menu, the chefs know this is their last chance to earn the honour of cooking at Abbey Road, so pull out all the stops in creating a banquet-worthy dish that does British music proud. With tributes to acts as diverse as Shirley Bassey to Wham!, there is no shortage of musical inspiration - but with so much at stake, some chefs crumble under the pressure, while the judges have their work cut out picking a winner from a spectacular top tier of delectable desserts.

First broadcast: 16 May 2019
Duration: 1 hour

Torrent dead? Request reseed at 1337xproxy.info or torrentgalaxy.org - or ask at elsonroa at tutanota.com



Media info:-
General
Format : MPEG-4
Format profile : Base Media
Codec ID : isom (isom/iso2/avc1/mp41)
File size : 2.22 GiB
Duration : 59mn 0s
Overall bit rate mode : Variable
Overall bit rate : 5 384 Kbps
Writing application : Lavf57.83.100

Video
ID : 1
Format : AVC
Format/Info : Advanced Video Codec
Format profile : [email protected]
Format settings, CABAC : Yes
Format settings, ReFrames : 4 frames
Codec ID : avc1
Codec ID/Info : Advanced Video Coding
Duration : 59mn 0s
Bit rate : 5 059 Kbps
Width : 1 280 pixels
Height : 720 pixels
Display aspect ratio : 16:9
Frame rate mode : Constant
Frame rate : 50.000 fps
Color space : YUV
Chroma subsampling : 4:2:0
Bit depth : 8 bits
Scan type : Progressive
Bits/(Pixel*Frame) : 0.110
Stream size : 2.08 GiB (94%)
Encoded date : UTC 1904-01-01 00:00:00
Tagged date : UTC 1904-01-01 00:00:00
Color range : Limited
Color primaries : BT.709
Transfer characteristics : BT.709
Matrix coefficients : BT.709

Audio
ID : 2
Format : AAC
Format/Info : Advanced Audio Codec
Format profile : LC
Codec ID : 40
Duration : 59mn 0s
Bit rate mode : Variable
Bit rate : 317 Kbps
Maximum bit rate : 332 Kbps
Channel(s) : 2 channels
Channel positions : Front: L R
Sampling rate : 48.0 KHz
Frame rate : 46.875 fps (1024 spf)
Compression mode : Lossy
Stream size : 134 MiB (6%)
Language : English

Files:

Great British Menu S14E28 The Finals Dessert
  • About this torrent.txt (2.4 KB)
  • Great British Menu S14E28 The Finals Dessert.jpg (911.4 KB)
  • Great British Menu S14E28 The Finals Dessert.mp4 (2.2 GB)
  • Great British Menu S14E28 The Finals Dessert.srt (153.5 KB)
  • If this torrent is dead.txt (0.1 KB)
  • Torrent Downloaded From 1337xproxy.info.txt (0.0 KB)
  • [TGx]Downloaded from torrentgalaxy.org .txt (0.6 KB)

Comments

Code:

  • udp://bt.xxx-tracker.com:2710/announce
  • udp://tracker.torrent.eu.org:451/announce
  • udp://tracker.iamhansen.xyz:2000/announce
  • udp://retracker.hotplug.ru:2710/announce
  • udp://tracker.birkenwald.de:6969/announce
  • udp://tracker.novg.net:6969/announce
  • udp://tracker.supertracker.net:1337/announce
  • udp://bigfoot1942.sektori.org:6969/announce
DOWNLOAD Torrent