Loading...

The Big Bang Theory S12E24 The Stockholm Syndrome 1080p AMZN Webr...

  • Category TV
  • Type HEVC/x265
  • Language English
  • Total size 816.1 MB
  • Uploaded By Goki
  • Downloads 1087
  • Last checked 1 month ago
  • Date uploaded 1 month ago
  • Seeders 40
  • Leechers 20
90%
May 17, 2019, 2:00 am

The Big Bang Theory

Bernadette and Wolowitz leave their kids for the first time; Penny and Leonard try to keep a secret; Sheldon and Amy stick together; and Koothrappali makes a new friend, as the gang travels together into an uncharted future.

Infohash : 89AAE7D52AD84B5656393DA5E562BECB89CA0997









Media Information



Unique ID : 123958680896590015858450787435630077121 (0x5D4192D38DAA9E7DD0143CAAE878A4C1)
Complete name : The Big Bang Theory S12E24 The Stockholm Syndrome 1080p AMZN Webrip x265 EAC3 5.1 - Goki [SEV].mkv
Format : Matroska
Format version : Version 4
File size : 816 MiB
Duration : 23 min 11 s
Overall bit rate : 4 920 kb/s
Movie name : The Big Bang Theory S12E24 The Stockholm Syndrome 1080p AMZN Webrip x265 EAC3 5.1 - Goki [SEV]
Encoded date : UTC 2019-05-17 21:34:46
Writing application : mkvmerge v28.2.0 ('The Awakening') 64-bit
Writing library : libebml v1.3.6 + libmatroska v1.4.9 / Lavf57.73.100
Writing application : Internet Friendly Media Encoder v7.7 ('Prism Ark')
Writing library : IFME v7.7 amd64 windows

Video
ID : 1
Format : HEVC
Format/Info : High Efficiency Video Coding
Format profile : Main [email protected]@Main
Codec ID : V_MPEGH/ISO/HEVC
Duration : 23 min 11 s
Bit rate : 4 278 kb/s
Width : 1 920 pixels
Height : 1 080 pixels
Display aspect ratio : 16:9
Frame rate mode : Constant
Frame rate : 24.000 FPS
Color space : YUV
Chroma subsampling : 4:2:0
Bit depth : 10 bits
Bits/(Pixel*Frame) : 0.086
Stream size : 710 MiB (87%)
Language : English
Default : Yes
Forced : No

Audio
ID : 2
Format : E-AC-3
Format/Info : Enhanced AC-3
Commercial name : Dolby Digital Plus
Codec ID : A_EAC3
Duration : 23 min 11 s
Bit rate mode : Constant
Bit rate : 640 kb/s
Channel(s) : 6 channels
Channel layout : L R C LFE Ls Rs
Sampling rate : 48.0 kHz
Frame rate : 31.250 FPS (1536 SPF)
Compression mode : Lossy
Delay relative to video : 28 ms
Stream size : 106 MiB (13%)
Language : English
Service kind : Complete Main
Default : Yes
Forced : No

Text
ID : 3
Format : UTF-8
Codec ID : S_TEXT/UTF8
Codec ID/Info : UTF-8 Plain Text
Duration : 22 min 48 s
Bit rate : 91 b/s
Count of elements : 500
Stream size : 15.3 KiB (0%)
Language : English
Default : No
Forced : No

Source


AMZN AMRAP

.........................................................................................................................................


We have no issue with individuals posting or re-uploading our torrents on a platform we aren't on. However, if this is something you'd like to do, please do so in a 'as-is' format. We ask that you do not create a new torrent, include all descriptions you see above including the SEV logo, tags, notes and screenshots. If you'd like to become a permanent poster on a website we don't post to, feel free to get in contact with a Sublime Encoded Video member.



We are recruiting/training new members for SEV & seedbox providers as well as people to help out with subtitles.
As you already know, we deliver quality, so you know the standard.
If you're interested, feel free to contact any of the team members.

Files:

  • The Big Bang Theory S12E24 The Stockholm Syndrome 1080p AMZN Webrip x265 EAC3 5.1 - Goki [SEV].mkv (816.1 MB)

There are currently no comments. Feel free to leave one :)

Code:

  • udp://tracker.coppersurfer.tk:6969/announce
  • udp://tracker.opentrackr.org:1337/announce
  • udp://tracker.torrent.eu.org:451/announce
  • udp://tracker.internetwarriors.net:1337/announce
  • //tracker.opentrackr.org:1337/announce
  • udp://denis.stalker.upeer.me:6969/announce
  • udp://tracker.coppersurfer.tk:6969
  • udp://tracker.internetwarriors.net:1337
  • udp://9.rarbg.me:2720/announce
  • udp://explodie.org:6969/announce
  • //tracker3.itzmx.com:6961/announce
  • udp://tracker.cyberia.is:6969/announce
  • udp://thetracker.org/announce
  • udp://open.demonii.si:1337/announce
DOWNLOAD Torrent