Loading...

Mirai no Mirai (2018).720p.H264.italian.jpn.Ac3-5.1.sub.ita.eng-M...

  • Category Anime
  • Type Dual Audio
  • Language Italian
  • Total size 1.7 GB
  • Uploaded By robbyrs
  • Downloads 123
  • Last checked 3 weeks ago
  • Date uploaded 4 weeks ago
  • Seeders 13
  • Leechers 1

Infohash : 3C51F0A9A69E3B0BDDC53CB1DFEF7E61CEF00D81

Mirai no Mirai (2018).720p.H264.italian.jpn.Ac3-5.1.sub.ita.eng-MIRCrew


NO FOUND ONLY ORIGINAL RELEASE

My release is always in double track audio italian and Original audio
for select it use VLC or dvd player home
not use wmp

ENGLISH SUBTITLE INSIDE

Mirai (2018)

Quality MIRCrew on HD 720p da 1,7 gb










Titolo originale 未来のミライ
Mirai no Mirai
Lingua originale giapponese
Paese di produzione Giappone
Anno 2018
Durata 100 min
Rapporto 1,85:1
Genere animazione, avventura, drammatico, fantastico
Regia Mamoru Hosoda
Soggetto Mamoru Hosoda
Sceneggiatura Mamoru Hosoda



Doppiatori italiani

Tatiana Dessi: Kun
Roisin Nicosia: Mirai
Maurizio Reti: Padre
Irene Di Valmo: Madre
Maurizio Fiorentini: Yukko
David Chevalier: Bisnonno
Daniela Cavallini: Nonna
Sergio Luzi: Nonno
Gabriele Vender: Kun da adolescente
Germana Savo: Madre da bambina
Francesco Fabbri: Robot della stazione di Tokyo





Kun-chan è un bambino di 4 anni, che con la nascita della sorellina Mirai (futuro in giapponese) sente venir meno l'affetto dei suoi genitori, "rubato" dalla nuova arrivata. Sopraffatto dalla gelosia, raggiunge un giardino magico dove incontra la versione adolescente di sua sorella neonata.



A young boy encounters a magical garden which enables him to travel through time and meet his relatives from different eras, with guidance by his younger sister from the future.




General
Unique ID : 251434586155724079391311521790201260939 (0xBD288A33D19CDB19827986A595D96B8B)
Complete name : Mirai (2018).720p.h264.ita.jpn.sub.ita-MIRCrew\Mirai (2018).720p.h264.ita.jpn.sub.ita-MIRCrew.mkv
Format : Matroska
Format version : Version 2
File size : 1.68 GiB
Duration : 1h 37mn
Overall bit rate : 2 457 Kbps
Movie name : MIRCrew
Encoded date : UTC 2019-05-18T16:02:40Z
Writing application : mkvmerge v5.8.0 ('No Sleep / Pillow') built on Sep 2 2012 15:37:04
Writing library : Lavf55.12.0

Video
ID : 1
Format : AVC
Format/Info : Advanced Video Codec
Format profile : [email protected]
Format settings, CABAC : Yes
Format settings, ReFrames : 4 frames
Codec ID : V_MPEG4/ISO/AVC
Duration : 1h 37mn
Bit rate : 1 900 Kbps
Width : 1 280 pixels
Height : 704 pixels
Display aspect ratio : 16:9
Frame rate : 23.976 fps
Color space : YUV
Chroma subsampling : 4:2:0
Bit depth : 8 bits
Scan type : Progressive
Bits/(Pixel*Frame) : 0.088
Stream size : 1.25 GiB (75%)
Title : MIRCrew
Writing library : x264 core 142 r2479 dd79a61
Encoding settings : cabac=1 / ref=1 / deblock=1:0:0 / analyse=0x1:0x111 / me=hex / subme=2 / psy=1 / psy_rd=1.00:0.00 / mixed_ref=0 / me_range=16 / chroma_me=1 / trellis=0 / 8x8dct=0 / cqm=0 / deadzone=21,11 / fast_pskip=1 / chroma_qp_offset=0 / threads=9 / lookahead_threads=3 / sliced_threads=0 / nr=0 / decimate=1 / interlaced=0 / bluray_compat=0 / constrained_intra=0 / bframes=3 / b_pyramid=2 / b_adapt=1 / b_bias=0 / direct=1 / weightb=1 / open_gop=0 / weightp=1 / keyint=240 / keyint_min=24 / scenecut=40 / intra_refresh=0 / rc_lookahead=10 / rc=abr / mbtree=1 / bitrate=1900 / ratetol=1.0 / qcomp=0.60 / qpmin=0 / qpmax=69 / qpstep=4 / vbv_maxrate=20000 / vbv_bufsize=25000 / nal_hrd=none / filler=0 / ip_ratio=1.40 / aq=1:1.00
Language : Italian
Default : Yes
Forced : No
Color primaries : BT.709-5, BT.1361, IEC 61966-2-4, SMPTE RP177
Transfer characteristics : BT.709-5, BT.1361
Matrix coefficients : BT.709-5, BT.1361, IEC 61966-2-4 709, SMPTE RP177

Audio #1
ID : 2
Format : AC-3
Format/Info : Audio Coding 3
Mode extension : CM (complete main)
Codec ID : A_AC3
Duration : 1h 37mn
Bit rate mode : Constant
Bit rate : 384 Kbps
Channel(s) : 6 channels
Channel positions : Front: L C R, Side: L R, LFE
Sampling rate : 48.0 KHz
Bit depth : 16 bits
Compression mode : Lossy
Delay relative to video : -5ms
Stream size : 269 MiB (16%)
Title : Ita Ac3 5.1
Language : Italian
Default : Yes
Forced : No

Audio #2
ID : 3
Format : AC-3
Format/Info : Audio Coding 3
Mode extension : CM (complete main)
Codec ID : A_AC3
Duration : 1h 37mn
Bit rate mode : Constant
Bit rate : 192 Kbps
Channel(s) : 2 channels
Channel positions : Front: L R
Sampling rate : 48.0 KHz
Bit depth : 16 bits
Compression mode : Lossy
Delay relative to video : -5ms
Stream size : 135 MiB (8%)
Title : Jpn Ac3
Language : Japanese
Default : No
Forced : No

Menu
00:00:00.000 : :Chapter 1
00:02:12.465 : :Chapter 2
00:08:36.140 : :Chapter 3
00:22:21.757 : :Chapter 4
00:28:23.410 : :Chapter 5
00:40:59.248 : :Chapter 6
00:54:28.682 : :Chapter 7
01:05:23.336 : :Chapter 8
01:09:26.370 : :Chapter 9
01:22:25.524 : :Chapter 10
01:32:48.354 : :Chapter 11




Files:

Mirai (2018).720p.h264.ita.jpn.sub.ita.eng-MIRCrew
  • Mirai (2018).720p.h264.ita.jpn.sub.ita-MIRCrew.eng.srt (85.3 KB)
  • Mirai (2018).720p.h264.ita.jpn.sub.ita-MIRCrew.ita.srt (89.7 KB)
  • Mirai (2018).720p.h264.ita.jpn.sub.ita-MIRCrew.mkv (1.7 GB)
  • Mirai (2018).720p.h264.ita.jpn.sub.ita-MIRCrew.srt (0.3 KB)

There are currently no comments. Feel free to leave one :)

Code:

  • udp://tracker.coppersurfer.tk:6969/announce
  • udp://tracker.torrent.eu.org:451/announce
  • udp://tracker.pirateparty.gr:6969/announce
  • udp://tracker.opentrackr.org:1337/announce
  • udp://tracker.leechers-paradise.org:6969/announce
  • udp://tracker.eddie4.nl:6969/announce
  • udp://shadowshq.yi.org:6969/announce
  • udp://shadowshq.eddie4.nl:6969/announce
  • udp://inferno.demonoid.pw:3391/announce
  • udp://eddie4.nl:6969/announce
  • udp://9.rarbg.to:2730/announce
  • udp://9.rarbg.com:2710/announce
  • udp://9.rarbg.me:2780/announce
  • udp://62.138.0.158:6969/announce
  • udp://151.80.120.114:2710/announce
DOWNLOAD Torrent