Loading...

Game of Thrones S08E06 The Iron Throne 1080p AMZN Webrip x265 EAC...

  • Category TV
  • Type HEVC/x265
  • Language English
  • Total size 1.6 GB
  • Uploaded By Goki
  • Downloads 1303
  • Last checked 3 weeks ago
  • Date uploaded 4 weeks ago
  • Seeders 114
  • Leechers 18
60%
May 20, 2019, 3:00 am

Infohash : C55A36F20C4F2DB27524C46F17687BFF3C820C7E









Media Information



Unique ID : 270473661263715548400012798757421545444 (0xCB7B551434FC57398FBA4D214B6D77E4)
Complete name : Game of Thrones S08E06 The Iron Throne 1080p AMZN Webrip x265 EAC3 5.1 - Goki [SEV].mkv
Format : Matroska
Format version : Version 4
File size : 1.64 GiB
Duration : 1 h 19 min
Overall bit rate : 2 955 kb/s
Movie name : Game of Thrones S08E06 The Iron Throne 1080p AMZN Webrip x265 EAC3 5.1 - Goki [SEV]
Encoded date : UTC 2019-05-20 11:07:03
Writing application : mkvmerge v28.2.0 ('The Awakening') 64-bit
Writing library : libebml v1.3.6 + libmatroska v1.4.9 / Lavf57.73.100
Writing application : Internet Friendly Media Encoder v7.7 ('Prism Ark')
Writing library : IFME v7.7 amd64 windows

Video
ID : 1
Format : HEVC
Format/Info : High Efficiency Video Coding
Format profile : Main [email protected]@Main
Codec ID : V_MPEGH/ISO/HEVC
Duration : 1 h 19 min
Bit rate : 2 313 kb/s
Width : 1 920 pixels
Height : 1 080 pixels
Display aspect ratio : 16:9
Frame rate mode : Constant
Frame rate : 23.976 (24000/1001) FPS
Color space : YUV
Chroma subsampling : 4:2:0
Bit depth : 10 bits
Bits/(Pixel*Frame) : 0.047
Stream size : 1.28 GiB (78%)
Writing library : x265 2.9+8-27d8424c799d:[Windows][MSVC 1915][64 bit] 10bit
Encoding settings : cpuid=1111039 / frame-threads=2 / numa-pools=4 / wpp / no-pmode / no-pme / no-psnr / no-ssim / log-level=2 / input-csp=1 / input-res=1920x1080 / interlace=0 / total-frames=0 / level-idc=0 / high-tier=1 / uhd-bd=0 / ref=4 / no-allow-non-conformance / no-repeat-headers / annexb / no-aud / no-hrd / info / hash=0 / no-temporal-layers / open-gop / min-keyint=23 / keyint=250 / gop-lookahead=0 / bframes=8 / b-adapt=2 / b-pyramid / bframe-bias=0 / rc-lookahead=100 / lookahead-slices=4 / scenecut=40 / radl=0 / no-intra-refresh / ctu=64 / min-cu-size=8 / no-rect / no-amp / max-tu-size=32 / tu-inter-depth=1 / tu-intra-depth=1 / limit-tu=0 / rdoq-level=2 / dynamic-rd=0.00 / no-ssim-rd / signhide / no-tskip / nr-intra=0 / nr-inter=0 / no-constrained-intra / no-strong-intra-smoothing / max-merge=3 / limit-refs=3 / limit-modes / me=3 / subme=5 / merange=57 / temporal-mvp / weightp / no-weightb / no-analyze-src-pics / deblock=0:0 / sao / no-sao-non-deblock / rd=4 / no-early-skip / rskip / no-fast-intra / no-tskip-fast / no-cu-lossless / no-b-intra / no-splitrd-skip / rdpenalty=0 / psy-rd=1.30 / psy-rdoq=2.00 / no-rd-refine / no-lossless / cbqpoffs=0 / crqpoffs=0 / rc=crf / crf=20.0 / qcomp=0.60 / qpstep=4 / stats-write=0 / stats-read=0 / ipratio=1.40 / pbratio=1.30 / aq-mode=2 / aq-strength=1.10 / cutree / zone-count=0 / no-strict-cbr / qg-size=32 / no-rc-grain / qpmax=69 / qpmin=0 / no-const-vbv / sar=1 / overscan=0 / videoformat=5 / range=0 / colorprim=2 / transfer=2 / colormatrix=2 / chromaloc=0 / display-window=0 / max-cll=0,0 / min-luma=0 / max-luma=1023 / log2-max-poc-lsb=8 / vui-timing-info / vui-hrd-info / slices=1 / no-opt-qp-pps / no-opt-ref-list-length-pps / no-multi-pass-opt-rps / scenecut-bias=0.05 / no-opt-cu-delta-qp / no-aq-motion / no-hdr / no-hdr-opt / no-dhdr10-opt / no-idr-recovery-sei / analysis-reuse-level=5 / scale-factor=0 / refine-intra=0 / refine-inter=0 / refine-mv=0 / no-limit-sao / ctu-info=0 / no-lowpass-dct / refine-mv-type=0 / copy-pic=1 / max-ausize-factor=1.0 / no-dynamic-refine / no-single-sei
Default : Yes
Forced : No

Audio
ID : 2
Format : E-AC-3
Format/Info : Enhanced AC-3
Commercial name : Dolby Digital Plus
Codec ID : A_EAC3
Duration : 1 h 19 min
Bit rate mode : Constant
Bit rate : 640 kb/s
Channel(s) : 6 channels
Channel layout : L R C LFE Ls Rs
Sampling rate : 48.0 kHz
Frame rate : 31.250 FPS (1536 SPF)
Compression mode : Lossy
Delay relative to video : 2 ms
Stream size : 364 MiB (22%)
Language : English
Service kind : Complete Main
Default : Yes
Forced : No

Text #1
ID : 3
Format : UTF-8
Codec ID : S_TEXT/UTF8
Codec ID/Info : UTF-8 Plain Text
Duration : 1 h 15 min
Bit rate : 27 b/s
Count of elements : 517
Stream size : 15.1 KiB (0%)
Language : English
Default : No
Forced : No

Text #2
ID : 4
Format : UTF-8
Codec ID : S_TEXT/UTF8
Codec ID/Info : UTF-8 Plain Text
Duration : 1 h 17 min
Bit rate : 29 b/s
Count of elements : 629
Stream size : 16.7 KiB (0%)
Language : English
Default : No
Forced : No

Menu
00:00:00.000 : en:Ratings
00:00:03.858 : en:Previously On
00:00:57.858 : en:Opening Credits
00:02:56.858 : en:What remains of King's Landing
00:05:52.858 : en:Following the queen's orders
00:07:28.858 : en:The last of House Lannister
00:11:53.858 : en:Breaking the wheel
00:21:13.858 : en:Love is the death of duty
00:30:18.858 : en:Building a new world together
00:42:44.858 : en:Determining what's best for the kingdom
00:56:16.858 : en:Everyone is where they're supposed to be
01:03:42.858 : en:Honoring a legacy
01:05:45.858 : en:A song of ice and fire
01:11:15.858 : en:And now my watch begins
01:12:30.858 : en:The last of house Stark
01:18:08.858 : en:End Credits


Source


AMZN GoT

.........................................................................................................................................


We have no issue with individuals posting or re-uploading our torrents on a platform we aren't on. However, if this is something you'd like to do, please do so in a 'as-is' format. We ask that you do not create a new torrent, include all descriptions you see above including the SEV logo, tags, notes and screenshots. If you'd like to become a permanent poster on a website we don't post to, feel free to get in contact with a Sublime Encoded Video member.



We are recruiting/training new members for SEV & seedbox providers as well as people to help out with subtitles.
As you already know, we deliver quality, so you know the standard.
If you're interested, feel free to contact any of the team members.

Files:

  • Game of Thrones S08E06 The Iron Throne 1080p AMZN Webrip x265 EAC3 5.1 - Goki [SEV].mkv (1.6 GB)

There are currently no comments. Feel free to leave one :)

Code:

  • udp://tracker.coppersurfer.tk:6969/announce
  • udp://tracker.opentrackr.org:1337/announce
  • udp://tracker.torrent.eu.org:451/announce
  • udp://tracker.internetwarriors.net:1337/announce
  • //tracker.opentrackr.org:1337/announce
  • udp://denis.stalker.upeer.me:6969/announce
  • udp://tracker.coppersurfer.tk:6969
  • udp://tracker.internetwarriors.net:1337
  • udp://9.rarbg.me:2720/announce
  • udp://explodie.org:6969/announce
  • //tracker3.itzmx.com:6961/announce
  • udp://tracker.cyberia.is:6969/announce
  • udp://thetracker.org/announce
  • udp://open.demonii.si:1337/announce
DOWNLOAD Torrent