Loading...

The Flintstones 1994 BluRay Dual Audio [Hindi DDP 5.1 + English D...

  • Category Movies
  • Type Dubs/Dual Audio
  • Language Hindi
  • Total size 7.0 GB
  • Uploaded By mkvCinemas
  • Downloads 140
  • Last checked 3 months ago
  • Date uploaded 3 months ago
  • Seeders 6
  • Leechers 3

The Flintstones

ComedyFantasyFamily

Modern Stone Age family the Flintstones hit the big screen in this live-action version of the classic cartoon. Fred helps Barney adopt a child. Barney sees an opportunity to repay him when Slate Mining tests its employees to find a new executive. But no good deed goes unpunished.

Infohash : EC25D70B9C5EA85A005F936BCA0FB3BEEF43A914







********************************

The Flintstones 1994 BluRay Dual Audio [Hindi DDP 5.1 + English DTS 5.1] 1080p x264 ESub - mkvCinemas [Telly]

********************************

Mediainfo:-
Format : Matroska
Format version : Version 2
File size : 6.96 GiB
Duration : 1h 30mn
Overall bit rate : 11.0 Mbps


Video
ID : 1
Format : AVC
Format/Info : Advanced Video Codec
Format profile : [email protected]
Format settings, CABAC : Yes
Format settings, ReFrames : 4 frames
Muxing mode : Header stripping
Codec ID : V_MPEG4/ISO/AVC
Duration : 1h 30mn
Bit rate : 8 848 Kbps
Width : 1 920 pixels
Height : 1 040 pixels
Display aspect ratio : 1.85:1
Frame rate mode : Constant
Frame rate : 23.976 fps
Color space : YUV

Audio #1
ID : 2
Format : E-AC-3
Format/Info : Audio Coding 3
Format settings, Endianness : Big
Muxing mode : Header stripping
Codec ID : A_EAC3
Duration : 1h 30mn
Bit rate mode : Constant
Bit rate : 640 Kbps
Channel(s) : 6 channels
Channel positions : Front: L C R, Side: L R, LFE
Sampling rate : 48.0 KHz
Compression mode : Lossy
Stream size : 415 MiB (6%)
Title : mkvCinemas
Language : Hindi
Default : Yes
Forced : No

Audio #2
ID : 3
Format : DTS
Format/Info : Digital Theater Systems
Mode : 16
Format settings, Endianness : Big
Muxing mode : Header stripping
Codec ID : A_DTS
Duration : 1h 30mn
Bit rate mode : Constant
Bit rate : 1 509 Kbps
Channel(s) : 6 channels
Channel positions : Front: L C R, Side: L R, LFE
Sampling rate : 48.0 KHz
Bit depth : 24 bits
Compression mode : Lossy
Stream size : 978 MiB (14%)
Title : mkvCinemas
Language : English
Default : No
Forced : No

Text
ID : 4
Format : UTF-8
Codec ID : S_TEXT/UTF8
Codec ID/Info : UTF-8 Plain Text
Title : mkvCinemas
Language : English
Default : Yes
Forced : No

Menu
00:00:00.000 : en:Chapter 01
00:04:08.915 : en:Chapter 02
00:09:28.609 : en:Chapter 03
00:14:49.179 : en:Chapter 04
00:19:21.493 : en:Chapter 05
00:25:29.069 : en:Chapter 06
00:29:19.507 : en:Chapter 07
00:34:29.317 : en:Chapter 08
00:40:39.061 : en:Chapter 09
00:45:55.711 : en:Chapter 10
00:48:50.677 : en:Chapter 11
00:55:29.242 : en:Chapter 12
01:00:39.802 : en:Chapter 13
01:05:56.744 : en:Chapter 14
01:11:37.001 : en:Chapter 15
01:15:40.410 : en:Chapter 16
01:19:55.123 : en:Chapter 17
01:23:17.033 : en:Chapter 18
01:30:39.183 : en:Chapter 19


********************************

Wherever you Share our Stuffs, Give Proper Credit to "mkvCinemas @Team Telly"
We Keep All Torrents. In case of re-seed, please pm.


********************************








********************************



********************************

Files:

The Flintstones 1994 BluRay Dual Audio [Hindi DDP 5.1 + English DTS 5.1] 1080p x264 ESub - mkvCinemas [Telly]
  • Tellytorrent.net.txt (0.0 KB)
  • The Flintstones 1994 BluRay Dual Audio [Hindi DDP 5.1 + English DTS 5.1] 1080p x264 ESub - mkvCinemas [Telly].mkv (7.0 GB)
  • mkvCinemas.cz.txt (0.0 KB)

There are currently no comments. Feel free to leave one :)

Code:

  • udp://tracker.coppersurfer.tk:6969/announce
  • udp://tracker.opentrackr.org:1337/announce
  • //tracker3.itzmx.com:6961/announce
  • //tracker1.itzmx.com:8080/announce
  • udp://p4p.arenabg.com:1337
  • udp://bt.firebit.co.uk:6969/announce
  • udp://tracker.leechers-paradise.org:6969/announce
  • udp://open.demonii.si:1337/announce
  • udp://tracker.tiny-vps.com:6969/announce
  • udp://thetracker.org:80/announce
  • udp://open.stealth.si:80/announce
  • udp://9.rarbg.com:2710/announce
  • udp://9.rarbg.me:2730/announce
  • udp://tracker.internetwarriors.net:1337/announce
  • //tracker.electro-torrent.pl:80/announce
DOWNLOAD Torrent
X
Attention! Use a VPN when Accessing Free Content !
Your IP address is - Country:
Your Internet provider Tracks your Activity! Hide your IP ADDRESS with a VPN!
Bonus: Get Lag-Free Streams & No popups with any VPN Purchased !

Download Here