Loading...

Charmed (2018) Season 01 S01 (1080p AMZN WEB-DL x265 HEVC 10bit A...

  • Category TV
  • Type HEVC/x265
  • Language English
  • Total size 18.5 GB
  • Uploaded By UTRCorp
  • Downloads 99
  • Last checked 1 month ago
  • Date uploaded 1 month ago
  • Seeders 2
  • Leechers 3

Infohash : 8863499595A295463F876C34EB455256571D5762

























Media Information

Media Information

Code:

General
Format : Matroska
Format version : Version 4 / Version 2
File size : 809 MiB
Duration : 42 min 34 s
Overall bit rate : 2 656 kb/s
Encoded date : UTC 2019-05-08 04:03:30
Writing application : mkvmerge v30.1.0 ('Forever And More') 64-bit
Writing library : libebml v1.3.6 + libmatroska v1.4.9

Video
ID : 1
Format : HEVC
Format/Info : High Efficiency Video Coding
Format profile : Main [email protected]@Main
Codec ID : V_MPEGH/ISO/HEVC
Duration : 42 min 34 s
Bit rate : 2 014 kb/s
Width : 1 920 pixels
Height : 1 080 pixels
Display aspect ratio : 16:9
Frame rate mode : Constant
Frame rate : 23.976 (24000/1001) FPS
Color space : YUV
Chroma subsampling : 4:2:0
Bit depth : 10 bits
Bits/(Pixel*Frame) : 0.041
Stream size : 613 MiB (76%)
Writing library : x265 3.0_Au+14-c7e5878bdd31:[Windows][GCC 8.3.0][64 bit] 10bit
Encoding settings : cpuid=1111039 / frame-threads=2 / numa-pools=4 / wpp / no-pmode / no-pme / no-psnr / no-ssim / log-level=2 / input-csp=1 / input-res=1920x1080 / interlace=0 / total-frames=61249 / level-idc=0 / high-tier=1 / uhd-bd=0 / ref=4 / no-allow-non-conformance / no-repeat-headers / annexb / no-aud / no-hrd / info / hash=0 / no-temporal-layers / open-gop / min-keyint=23 / keyint=250 / gop-lookahead=0 / bframes=8 / b-adapt=2 / b-pyramid / bframe-bias=0 / rc-lookahead=50 / lookahead-slices=4 / scenecut=40 / radl=0 / no-splice / no-intra-refresh / ctu=64 / min-cu-size=8 / no-rect / no-amp / max-tu-size=32 / tu-inter-depth=1 / tu-intra-depth=1 / limit-tu=0 / rdoq-level=2 / dynamic-rd=0.00 / no-ssim-rd / signhide / no-tskip / nr-intra=0 / nr-inter=0 / no-constrained-intra / no-strong-intra-smoothing / max-merge=3 / limit-refs=3 / limit-modes / me=3 / subme=3 / merange=57 / temporal-mvp / weightp / no-weightb / no-analyze-src-pics / deblock=1:1 / no-sao / no-sao-non-deblock / rd=4 / no-early-skip / no-rskip / no-fast-intra / no-tskip-fast / no-cu-lossless / no-b-intra / no-splitrd-skip / rdpenalty=0 / psy-rd=1.40 / psy-rdoq=1.00 / no-rd-refine / no-lossless / cbqpoffs=0 / crqpoffs=0 / rc=crf / crf=21.0 / qcomp=0.60 / qpstep=4 / stats-write=0 / stats-read=0 / ipratio=1.40 / pbratio=1.30 / aq-mode=2 / aq-strength=1.00 / cutree / zone-count=0 / no-strict-cbr / qg-size=32 / no-rc-grain / qpmax=69 / qpmin=0 / no-const-vbv / sar=0 / overscan=0 / videoformat=5 / range=0 / colorprim=2 / transfer=2 / colormatrix=2 / chromaloc=0 / display-window=0 / max-cll=0,0 / min-luma=0 / max-luma=1023 / log2-max-poc-lsb=8 / vui-timing-info / vui-hrd-info / slices=1 / no-opt-qp-pps / no-opt-ref-list-length-pps / no-multi-pass-opt-rps / scenecut-bias=0.05 / no-opt-cu-delta-qp / no-aq-motion / no-hdr / no-hdr-opt / no-dhdr10-opt / no-idr-recovery-sei / analysis-reuse-level=5 / scale-factor=0 / refine-intra=0 / refine-inter=0 / refine-mv=0 / refine-ctu-distortion=0 / no-limit-sao / ctu-info=0 / no-lowpass-dct / refine-analysis-type=0 / copy-pic=1 / max-ausize-factor=1.0 / no-dynamic-refine / no-single-sei / no-hevc-aq / no-svt / qp-adaptation-range=1.00
Language : English
Default : Yes
Forced : No

Audio
ID : 2
Format : E-AC-3
Format/Info : Enhanced Audio Coding 3
Format settings, Endianness : Big
Codec ID : A_EAC3
Duration : 42 min 34 s
Bit rate mode : Constant
Bit rate : 640 kb/s
Channel(s) : 6 channels
Channel positions : Front: L C R, Side: L R, LFE
Sampling rate : 48.0 kHz
Frame rate : 187.500 FPS (256 spf)
Compression mode : Lossy
Stream size : 195 MiB (24%)
Language : English
Default : Yes
Forced : No

Subtitle
ID : 3
Format : UTF-8
Codec ID : S_TEXT/UTF8
Codec ID/Info : UTF-8 Plain Text
Duration : 42 min 1 s
Bit rate : 77 b/s
Count of elements : 819
Stream size : 23.8 KiB (0%)
Language : English
Default : Yes
Forced : No



Source Information

Code:

Release:
Unknown Source/NO-GROUP




Files:

Charmed (2018) Season 01 S01 (1080p AMZN WEB-DL x265 HEVC 10bit AC3 5.1 Qman) [UTR]
  • Charmed.(2018).S01E01.1080p.AMZN.WEB-DL.x265.10bit.EAC3.6.0-Qman[UTR].mkv (808.8 MB)
  • Charmed.(2018).S01E02.1080p.AMZN.WEB-DL.x265.10bit.EAC3.6.0-Qman[UTR].mkv (819.6 MB)
  • Charmed.(2018).S01E03.1080p.AMZN.WEB-DL.x265.10bit.EAC3.6.0-Qman[UTR].mkv (941.1 MB)
  • Charmed.(2018).S01E04.1080p.AMZN.WEB-DL.x265.10bit.EAC3.6.0-Qman[UTR].mkv (882.6 MB)
  • Charmed.(2018).S01E05.1080p.AMZN.WEB-DL.x265.10bit.EAC3.6.0-Qman[UTR].mkv (838.6 MB)
  • Charmed.(2018).S01E06.1080p.AMZN.WEB-DL.x265.10bit.EAC3.6.0-Qman[UTR].mkv (832.5 MB)
  • Charmed.(2018).S01E07.1080p.AMZN.WEB-DL.x265.10bit.EAC3.6.0-Qman[UTR].mkv (731.6 MB)
  • Charmed.(2018).S01E08.1080p.AMZN.WEB-DL.x265.10bit.EAC3.6.0-Qman[UTR].mkv (746.9 MB)
  • Charmed.(2018).S01E09.1080p.AMZN.WEB-DL.x265.10bit.EAC3.6.0-Qman[UTR].mkv (748.3 MB)
  • Charmed.(2018).S01E10.1080p.AMZN.WEB-DL.x265.10bit.EAC3.6.0-Qman[UTR].mkv (699.8 MB)
  • Charmed.(2018).S01E11.1080p.AMZN.WEB-DL.x265.10bit.EAC3.6.0-Qman[UTR].mkv (1.0 GB)
  • Charmed.(2018).S01E12.1080p.AMZN.WEB-DL.x265.10bit.EAC3.6.0-Qman[UTR].mkv (1.0 GB)
  • Charmed.(2018).S01E13.1080p.AMZN.WEB-DL.x265.10bit.EAC3.6.0-Qman[UTR].mkv (969.2 MB)
  • Charmed.(2018).S01E14.1080p.AMZN.WEB-DL.x265.10bit.EAC3.6.0-Qman[UTR].mkv (963.3 MB)
  • Charmed.(2018).S01E15.1080p.AMZN.WEB-DL.x265.10bit.EAC3.6.0-Qman[UTR].mkv (792.8 MB)
  • Charmed.(2018).S01E16.1080p.AMZN.WEB-DL.x265.10bit.EAC3.6.0-Qman[UTR].mkv (806.5 MB)
  • Charmed.(2018).S01E17.1080p.AMZN.WEB-DL.x265.10bit.EAC3.6.0-Qman[UTR].mkv (944.1 MB)
  • Charmed.(2018).S01E18.1080p.AMZN.WEB-DL.x265.10bit.EAC3.6.0-Qman[UTR].mkv (836.2 MB)
  • Charmed.(2018).S01E19.1080p.AMZN.WEB-DL.x265.10bit.EAC3.6.0-Qman[UTR].mkv (797.0 MB)
  • Charmed.(2018).S01E20.1080p.AMZN.WEB-DL.x265.10bit.EAC3.6.0-Qman[UTR].mkv (806.5 MB)
  • Charmed.(2018).S01E21.1080p.AMZN.WEB-DL.x265.10bit.EAC3.6.0-Qman[UTR].mkv (918.7 MB)
  • Charmed.(2018).S01E22.1080p.AMZN.WEB-DL.x265.10bit.EAC3.6.0-Qman[UTR].mkv (988.5 MB)

There are currently no comments. Feel free to leave one :)

Code:

  • udp://9.rarbg.com:2710/announce
  • udp://tracker.opentrackr.org:1337/announce
  • udp://tracker.torrent.eu.org:451/announce
  • udp://tracker.leechers-paradise.org:6969/announce
  • udp://tracker.coppersurfer.tk:6969/announce
DOWNLOAD Torrent