Loading...

Chernobyl.S01E03.1080p.WEB.x265.10bit.6CH.ReEnc-LUMI

  • Category TV
  • Type HEVC/x265
  • Language English
  • Total size 1.2 GB
  • Uploaded By lumi265
  • Downloads 4465
  • Last checked 3 months ago
  • Date uploaded 3 months ago
  • Seeders 135
  • Leechers 26

Infohash : 208C2B039D169D5E42F62515C6ACF5CD85ED617B



presents



Chernobyl S01E03 in 1080p x265 10bit!



SEED TILL YOU BLEED



Note: The series is shot in a grainy manner to reflect the 80s look. Hence it is noisy, its not "bad quality".

Donate to help support!

Code:


Bitcoin: 3HKCmf9e2oTr9KvJcXCDRaCjg1AxioL1UE
BCH: qqgvak0004cj9g9p2fqcz0s8q8384s8mecq88swgpe
ETH: 0x865fEC58a2d98f44d7253A1d5cE18b40fb124462
LTC: MLogKCRBvwoeXe5z7wej8V93sQi1ue9uTr
ZEC: t1K9grYE1ZkQF9ftmowo3ejJZadpxKg9zn9



Screens:




Source: chernobyl.s01e03.internal.1080p.web.h264-memento (Thanks!)

Code:


Video
ID : 1
Format : HEVC
Format/Info : High Efficiency Video Coding
Format profile : Main [email protected]@Main
Codec ID : hvc1
Codec ID/Info : High Efficiency Video Coding
Duration : 1 h 5 min
Bit rate : 2 377 kb/s
Width : 1 920 pixels
Height : 960 pixels
Display aspect ratio : 2.000
Frame rate mode : Variable
Frame rate : 23.976 (24000/1001) FPS
Minimum frame rate : 23.974 FPS
Maximum frame rate : 23.981 FPS
Color space : YUV
Chroma subsampling : 4:2:0
Bit depth : 10 bits
Bits/(Pixel*Frame) : 0.054
Stream size : 1.09 GiB (90%)
Writing library : x265 2.9:[Windows][GCC 8.2.0][64 bit] 10bit

Audio
ID : 2
Format : AAC LC
Format/Info : Advanced Audio Codec Low Complexity
Codec ID : mp4a-40-2
Duration : 1 h 5 min
Bit rate mode : Constant
Bit rate : 256 kb/s
Channel(s) : 6 channels
Channel layout : C L R Ls Rs LFE
Sampling rate : 48.0 kHz
Frame rate : 46.875 FPS (1024 SPF)
Compression mode : Lossy
Stream size : 120 MiB (10%)
Title : Surround
Language : English

Text
ID : 3
Format : Timed Text
Muxing mode : sbtl
Codec ID : tx3g
Duration : 1 h 5 min
Bit rate mode : Variable
Bit rate : 54 b/s
Stream size : 25.7 KiB (0%)
Language : English
Default : Yes
Forced : No
Alternate group : 3



Files:

  • Chernobyl.S01E03.1080p.WEB.x265.10bit.6CH.ReEnc-LUMI.mp4 (1.2 GB)

Comments

Code:

  • udp://tracker.leechers-paradise.org:6969/announce
  • udp://tracker.coppersurfer.tk:6969/announce
  • udp://tracker.open-internet.nl:6969/announce
  • udp://tracker.internetwarriors.net:1337/announce
  • udp://open.demonii.si:1337/announce
  • udp://9.rarbg.to:2710/announce
DOWNLOAD Torrent
X
Attention! Use a VPN when Accessing Free Content !
Your IP address is - Country:
Your Internet provider Tracks your Activity! Hide your IP ADDRESS with a VPN!
Bonus: Get Lag-Free Streams & No popups with any VPN Purchased !

Download Here