Loading...

Gully Boy (2019) Hindi (1080p AMZN WEB-DL x265 HEVC 10bit AC3 5.1...

  • Category Movies
  • Type HEVC/x265
  • Language Hindi
  • Total size 3.4 GB
  • Uploaded By UTRCorp
  • Downloads 1096
  • Last checked 3 months ago
  • Date uploaded 3 months ago
  • Seeders 16
  • Leechers 3

Gully Boy

FamilyAdventureComedy

A coming-of-age story based on the lives of street rappers in Mumbai.

Infohash : 374EBFDCA51A78CD972954063381B95936764BF2


Media Information


Code:

General
Format                                   : Matroska
Format version                           : Version 4 / Version 2
File size                                : 3.41 GiB
Duration                                 : 2 h 34 min
Overall bit rate                         : 3 161 kb/s
Encoded date                             : UTC 2019-05-22 04:03:04
Writing application                      : mkvmerge v29.0.0 ('Like It Or Not') 64-bit
Writing library                          : libebml v1.3.6 + libmatroska v1.4.9
Writing frontend                         : StaxRip v2.0.0.0

Video
ID                                       : 1
Format                                   : HEVC
Format/Info                              : High Efficiency Video Coding
Format profile                           : Main [email protected]@Main
Codec ID                                 : V_MPEGH/ISO/HEVC
Duration                                 : 2 h 34 min
Bit rate                                 : 2 519 kb/s
Width                                    : 1 920 pixels
Height                                   : 872 pixels
Display aspect ratio                     : 2.2:1
Frame rate mode                          : Constant
Frame rate                               : 24.000 FPS
Color space                              : YUV
Chroma subsampling                       : 4:2:0
Bit depth                                : 10 bits
Bits/(Pixel*Frame)                       : 0.063
Stream size                              : 2.72 GiB (80%)
Writing library                          : x265 3.0+1-ed72af837053:[Windows][MSVC 1916][64 bit] 10bit
Encoding settings                        : cpuid=1111039 / frame-threads=3 / numa-pools=8 / wpp / no-pmode / no-pme / no-psnr / no-ssim / log-level=2 / input-csp=1 / input-res=1920x872 / interlace=0 / total-frames=222214 / level-idc=0 / high-tier=1 / uhd-bd=0 / ref=4 / no-allow-non-conformance / no-repeat-headers / annexb / no-aud / no-hrd / info / hash=0 / no-temporal-layers / open-gop / min-keyint=24 / keyint=250 / gop-lookahead=0 / bframes=8 / b-adapt=2 / b-pyramid / bframe-bias=0 / rc-lookahead=90 / lookahead-slices=4 / scenecut=40 / radl=0 / no-splice / no-intra-refresh / ctu=64 / min-cu-size=8 / no-rect / no-amp / max-tu-size=32 / tu-inter-depth=1 / tu-intra-depth=1 / limit-tu=0 / rdoq-level=2 / dynamic-rd=0.00 / no-ssim-rd / signhide / no-tskip / nr-intra=0 / nr-inter=0 / no-constrained-intra / no-strong-intra-smoothing / max-merge=3 / limit-refs=3 / limit-modes / me=3 / subme=5 / merange=57 / temporal-mvp / weightp / no-weightb / no-analyze-src-pics / deblock=-3:-3 / no-sao / no-sao-non-deblock / rd=5 / no-early-skip / no-rskip / no-fast-intra / no-tskip-fast / no-cu-lossless / no-b-intra / no-splitrd-skip / rdpenalty=0 / psy-rd=1.00 / psy-rdoq=5.00 / no-rd-refine / no-lossless / cbqpoffs=0 / crqpoffs=0 / rc=crf / crf=22.0 / qcomp=0.60 / qpstep=4 / stats-write=0 / stats-read=0 / ipratio=1.40 / pbratio=1.30 / aq-mode=2 / aq-strength=1.00 / cutree / zone-count=0 / no-strict-cbr / qg-size=32 / no-rc-grain / qpmax=69 / qpmin=0 / no-const-vbv / sar=0 / overscan=0 / videoformat=5 / range=0 / colorprim=2 / transfer=2 / colormatrix=1 / chromaloc=0 / display-window=0 / max-cll=0,0 / min-luma=0 / max-luma=1023 / log2-max-poc-lsb=8 / vui-timing-info / vui-hrd-info / slices=1 / no-opt-qp-pps / no-opt-ref-list-length-pps / no-multi-pass-opt-rps / scenecut-bias=0.05 / no-opt-cu-delta-qp / no-aq-motion / no-hdr / no-hdr-opt / no-dhdr10-opt / no-idr-recovery-sei / analysis-reuse-level=5 / scale-factor=0 / refine-intra=0 / refine-inter=0 / refine-mv=0 / refine-ctu-distortion=0 / no-limit-sao / ctu-info=0 / no-lowpass-dct / refine-analysis-type=0 / copy-pic=1 / max-ausize-factor=1.0 / no-dynamic-refine / no-single-sei / no-hevc-aq / qp-adaptation-range=1.00
Default                                  : Yes
Forced                                   : No
Color range                              : Limited
Matrix coefficients                      : BT.709

Audio
ID                                       : 2
Format                                   : E-AC-3
Format/Info                              : Enhanced Audio Coding 3
Format settings, Endianness              : Big
Codec ID                                 : A_EAC3
Duration                                 : 2 h 34 min
Bit rate mode                            : Constant
Bit rate                                 : 640 kb/s
Channel(s)                               : 6 channels
Channel positions                        : Front: L C R, Side: L R, LFE
Sampling rate                            : 48.0 kHz
Frame rate                               : 187.500 FPS (256 spf)
Compression mode                         : Lossy
Stream size                              : 706 MiB (20%)
Language                                 : Hindi
Default                                  : No
Forced                                   : No

Subtitle
ID                                       : 3
Format                                   : UTF-8
Codec ID                                 : S_TEXT/UTF8
Codec ID/Info                            : UTF-8 Plain Text
Duration                                 : 2 h 26 min
Bit rate                                 : 53 b/s
Count of elements                        : 2035
Stream size                              : 57.8 KiB (0%)
Language                                 : English
Default                                  : No
Forced                                   : No

Menu
00:00:00.000                             : en:Thank you Credits, Studio Logos
00:02:02.000                             : en:Scene 2
00:05:26.000                             : en:Title Sequence
00:05:34.000                             : en:Scene 4
00:21:49.000                             : en:Scene 5
00:35:25.000                             : en:Scene 6
00:52:05.000                             : en:Scene 7
01:08:36.000                             : en:Scene 8
01:23:06.000                             : en:Scene 9
01:43:23.000                             : en:Scene 10
02:05:11.000                             : en:Scene 11
02:14:32.000                             : en:Scene 12
02:25:25.000                             : en:End Credits



Source Information


Code:

Release: Gully.Boy.2019.1080p.AMZN.WEB-DL.DDP5.1.H.264-NTG (10.53 GBs)


Code:


Note From UTR
We have no issue with individuals posting or re-uploading our torrents on a platform we aren't on. However, if this is something you'd like to do, please do so in a 'as-is' format. We ask that you do not create a new torrent, include all descriptions you see above including the UTR logo, tags, notes and screenshots. If you'd like to become a permanent poster on a website we don't post to, feel free to get in contact with a UniTeam member.

If possible please donate: BTC 1QA5fum5AyXvWzdVCkQzUNvw3Ef15fHRaR





Files:

  • Gully Boy (2019) Hindi (1080p AMZN WEB-DL 10bit x265 HEVC EAC3 5.1 Oryx) [UTR].mkv (3.4 GB)

Comments

Code:

  • udp://tracker.coppersurfer.tk:6969/announce
  • udp://tracker.open-internet.nl:6969/announce
  • udp://tracker.leechers-paradise.org:6969/announce
  • udp://tracker.opentrackr.org:1337/announce
  • udp://tracker.internetwarriors.net:1337/announce
  • udp://9.rarbg.to:2710/announce
  • udp://9.rarbg.me:2710/announce
  • udp://tracker.openbittorrent.com:80/announce
  • udp://exodus.desync.com:6969/announce
  • udp://tracker.torrent.eu.org:451/announce
  • udp://tracker.tiny-vps.com:6969/announce
  • udp://denis.stalker.upeer.me:6969/announce
  • udp://tracker.cyberia.is:6969/announce
  • udp://thetracker.org:80/announce
  • udp://open.demonii.si:1337/announce
  • udp://bt.xxx-tracker.com:2710/announce
  • udp://explodie.org:6969/announce
  • //open.acgnxtracker.com:80/announce
  • udp://ipv4.tracker.harry.lu:80/announce
  • //retracker.mgts.by:80/announce
DOWNLOAD Torrent
X
Attention! Use a VPN when Accessing Free Content !
Your IP address is - Country:
Your Internet provider Tracks your Activity! Hide your IP ADDRESS with a VPN!
Bonus: Get Lag-Free Streams & No popups with any VPN Purchased !

Download Here