Loading...

[iKaos] Dragon Ball Z - S01 - 01-39 [v3] - Multi-Audio [Broadcast...

  • Category Anime
  • Type Dubbed
  • Language English
  • Total size 113.0 GB
  • Uploaded By EroRambos
  • Downloads 29
  • Last checked 3 weeks ago
  • Date uploaded 3 weeks ago
  • Seeders 0
  • Leechers 13

Infohash : 67398AE80BA67D120AC95741678C496CFCF0F2E3

Updates:

1. This is it. This is my final/definitive release of the Level Sets, rebuilt from the ground up. If you’ve downloaded any previous versions of these episodes, please replace them with this release.
2. All episodes are newly encoded from the raw sets with NEPs added in from the R2J Dragon Box (v2 was a re-encode). In addition, the video has been re-timed to match the Dragon Box for ease of synchronization. This has the bonus effect of allowing me to create a version of 1-39 that uses the R2J Dragon Box as a video source. Grain has been kept from the original release.
3. All episodes contain the higher quality JPN Broadcast Audio as released by AnimeMaakuo. A light noise reduction was applied in Audacity to eliminate some of the hiss and the fake stereo was removed and reduced down to the original mono. No other processing was applied.
4. The Saban/Ocean track has been once again re-timed and cleaned up to provide smoother transitions between track elements. New themes for Eyecatches and NEPs have been created from original soundtrack elements.
5. I have added the 5.1 UUE English track for the episodes that it is available for. Aside from being 5.1, the UUE track uses the Dave Moran OP theme that originally ran with the UUE episodes.
6. The Remastered/Johnson dub uses the Orange Bricks as its source due to ease of syncing and my desire to reduce bloat. The exceptions are episodes 1-8 which are derived from the Season Sets due to them containing some alternate musical cues. As a compromise I will be releasing FLAC season set audio of the replacement score track for the entire series separately for anyone who wants to sync it to the R2J.
7. Unless there’s a major mistake I am never touching these episodes again. I will be proceeding with season 3 next before re-releasing season 2.

These episodes are compiled from the following sources. Unless otherwise specified, iKaos is the original encoder for all elements:



Video:

1. (1-34) 4x3 1080p R1/US Level Set Blu-Rays - from raw Blu-Rays, retimed to R2J
2. (35-39) 4x3 1080p R1/US Level Set WEB-DL - originally captured by Arian & DragoonClawNZ

Audio - 6 tracks:

1. Japanese Mono Tokai Broadcast Audio (FLAC) - originally released by AnimeMaakuo, retimed by me
2. English 2007 5.1 FUNimation “Remastered” Dub w/Shunsuke Kikuchi score (AC3) - from the R1/US Dragon Box
3. English 2007 2.0 FUNimation “Remastered” Dub w/Nathan Johnson score (AC3) - from the Season Sets (1-8) and Orange Bricks (9-39)
4. English 2005 5.1 FUNimation Ultimate Uncut Edition Dub (AAC) - from the UUE DVDs (1-27 only)
5. English 1996 2.0 Saban/Ocean Dub (AAC) - A re-creation of the original English dub, custom made by me, with gaps filled in with the FUNi/Kikuchi dub in an attempt to create a relatively seamless nostalgic viewing experience. Sourced from the “Rock The Dragon” DVD Set
6. Japanese DVD Audio (AC3) - from the R2J Dragon Box

Random Notes:

1. Insert songs have been re-added to FUNi/Kikuchi episodes 20 and 28. They were omitted from the official release.
2. Thanks to JySzE for Orange Brick resources.
3. Thanks to N12 for UUE resources.


Quote:


General
Unique ID                                : 95614131067546781674415773891144800972 (0x47EE9C9FC61AD21F80F60C5A6DF95ACC)
Complete name                            : .../Dragon Ball Z.S01E11.BluRay.1080p.FLAC.AC3.AAC.x264-iKaos [v3].mkv
Format                                   : Matroska
Format version                           : Version 4
File size                                : 2.76 GiB
Duration                                 : 24mn 39s
Overall bit rate mode                    : Variable
Overall bit rate                         : 16.0 Mbps
Encoded date                             : UTC 2019-05-21 00:23:06
Writing application                      : mkvmerge v34.0.0 ('Sight and Seen') 64-bit
Writing library                          : libebml v1.3.7 + libmatroska v1.5.0

Video
ID                                       : 1
Format                                   : AVC
Format/Info                              : Advanced Video Codec
Format profile                           : High [email protected]
Format settings                          : CABAC / 5 Ref Frames
Format settings, CABAC                   : Yes
Format settings, ReFrames                : 5 frames
Codec ID                                 : V_MPEG4/ISO/AVC
Duration                                 : 24mn 39s
Bit rate                                 : 13.9 Mbps
Width                                    : 1 440 pixels
Height                                   : 1 080 pixels
Display aspect ratio                     : 4:3
Frame rate mode                          : Constant
Frame rate                               : 23.976 (24000/1001) fps
Color space                              : YUV
Chroma subsampling                       : 4:2:0
Bit depth                                : 10 bits
Scan type                                : Progressive
Bits/(Pixel*Frame)                       : 0.373
Stream size                              : 2.40 GiB (87%)
Writing library                          : x264 core 157 r2935 545de2f
Encoding settings                        : cabac=1 / ref=5 / deblock=1:0:0 / analyse=0x3:0x113 / me=hex / subme=8 / psy=1 / psy_rd=1.00:0.00 / mixed_ref=1 / me_range=16 / chroma_me=1 / trellis=2 / 8x8dct=1 / cqm=0 / deadzone=21,11 / fast_pskip=1 / chroma_qp_offset=-2 / threads=12 / lookahead_threads=2 / sliced_threads=0 / nr=0 / decimate=1 / interlaced=0 / bluray_compat=0 / constrained_intra=0 / bframes=3 / b_pyramid=2 / b_adapt=1 / b_bias=0 / direct=3 / weightb=1 / open_gop=0 / weightp=2 / keyint=240 / keyint_min=24 / scenecut=40 / intra_refresh=0 / rc_lookahead=50 / rc=crf / mbtree=1 / crf=22.0 / qcomp=0.60 / qpmin=0 / qpmax=81 / qpstep=4 / vbv_maxrate=150000 / vbv_bufsize=187500 / crf_max=0.0 / nal_hrd=none / filler=0 / ip_ratio=1.40 / aq=1:1.00
Language                                 : English
Default                                  : Yes
Forced                                   : No
Color range                              : Limited
Color primaries                          : BT.709
Transfer characteristics                 : BT.709
Matrix coefficients                      : BT.709

Audio #1
ID                                       : 2
Format                                   : FLAC
Format/Info                              : Free Lossless Audio Codec
Codec ID                                 : A_FLAC
Duration                                 : 24mn 39s
Bit rate mode                            : Variable
Bit rate                                 : 396 Kbps
Channel(s)                               : 1 channel
Channel layout                           : C
Sampling rate                            : 48.0 KHz
Frame rate                               : 11.719 fps (4096 SPF)
Bit depth                                : 16 bits
Compression mode                         : Lossless
Stream size                              : 69.8 MiB (2%)
Title                                    : 1989 Mono Tokai Broadcast Audio [iKaos/AnimeMaakuo/Kei17] - FLAC
Writing library                          : libFLAC 1.3.1 (UTC 2014-11-25)
Language                                 : Japanese
Default                                  : Yes
Forced                                   : No

Audio #2
ID                                       : 3
Format                                   : AC-3
Format/Info                              : Audio Coding 3
Commercial name                          : Dolby Digital
Codec ID                                 : A_AC3
Duration                                 : 24mn 39s
Bit rate mode                            : Constant
Bit rate                                 : 384 Kbps
Channel(s)                               : 6 channels
Channel layout                           : L R C LFE Ls Rs
Sampling rate                            : 48.0 KHz
Frame rate                               : 31.250 fps (1536 SPF)
Bit depth                                : 16 bits
Compression mode                         : Lossy
Stream size                              : 67.7 MiB (2%)
Title                                    : 2007 5.1 FUNi Remastered Dub (Kikuchi Score) - AC3
Language                                 : English
Service kind                             : Complete Main
Default                                  : No
Forced                                   : No

Audio #3
ID                                       : 4
Format                                   : AC-3
Format/Info                              : Audio Coding 3
Commercial name                          : Dolby Digital
Codec ID                                 : A_AC3
Duration                                 : 24mn 9s
Bit rate mode                            : Constant
Bit rate                                 : 192 Kbps
Channel(s)                               : 2 channels
Channel layout                           : L R
Sampling rate                            : 48.0 KHz
Frame rate                               : 31.250 fps (1536 SPF)
Bit depth                                : 16 bits
Compression mode                         : Lossy
Stream size                              : 33.2 MiB (1%)
Title                                    : 2007 2.0 FUNi Remastered Dub (Johnson Score) - AC3
Language                                 : English
Service kind                             : Complete Main
Default                                  : No
Forced                                   : No

Audio #4
ID                                       : 5
Format                                   : AAC LC
Format/Info                              : Advanced Audio Codec Low Complexity
Codec ID                                 : A_AAC-2
Duration                                 : 24mn 10s
Bit rate                                 : 445 Kbps
Channel(s)                               : 6 channels
Channel layout                           : C L R Ls Rs LFE
Sampling rate                            : 48.0 KHz
Frame rate                               : 46.875 fps (1024 SPF)
Compression mode                         : Lossy
Stream size                              : 77.0 MiB (3%)
Title                                    : 2005 5.1 FUNi UUE Dub [iKaos] - AAC
Language                                 : English
Default                                  : No
Forced                                   : No

Audio #5
ID                                       : 6
Format                                   : AAC LC
Format/Info                              : Advanced Audio Codec Low Complexity
Codec ID                                 : A_AAC-2
Duration                                 : 24mn 39s
Bit rate                                 : 253 Kbps
Channel(s)                               : 2 channels
Channel layout                           : L R
Sampling rate                            : 48.0 KHz
Frame rate                               : 46.875 fps (1024 SPF)
Compression mode                         : Lossy
Stream size                              : 44.7 MiB (2%)
Title                                    : 1996 2.0 Saban/Ocean Dub [iKaos] - AAC
Language                                 : English
Default                                  : No
Forced                                   : No

Audio #6
ID                                       : 7
Format                                   : AC-3
Format/Info                              : Audio Coding 3
Commercial name                          : Dolby Digital
Codec ID                                 : A_AC3
Duration                                 : 24mn 39s
Bit rate mode                            : Constant
Bit rate                                 : 448 Kbps
Channel(s)                               : 2 channels
Channel layout                           : L R
Sampling rate                            : 48.0 KHz
Frame rate                               : 31.250 fps (1536 SPF)
Bit depth                                : 16 bits
Compression mode                         : Lossy
Stream size                              : 79.0 MiB (3%)
Title                                    : 1989 2.0 R2J Dragon Box - AC3
Language                                 : Japanese
Service kind                             : Complete Main
Default                                  : No
Forced                                   : No

Text #1
ID                                       : 8
Format                                   : ASS
Codec ID                                 : S_TEXT/ASS
Codec ID/Info                            : Advanced Sub Station Alpha
Duration                                 : 24mn 25s
Bit rate                                 : 131 bps
Count of elements                        : 268
Compression mode                         : Lossless
Stream size                              : 23.5 KiB (0%)
Title                                    : Subtitles - SSA
Language                                 : English
Default                                  : Yes
Forced                                   : No

Text #2
ID                                       : 9
Format                                   : VobSub
Muxing mode                              : zlib
Codec ID                                 : S_VOBSUB
Codec ID/Info                            : Picture based subtitle format used on DVDs
Duration                                 : 24mn 25s
Bit rate                                 : 922 bps
Count of elements                        : 37
Stream size                              : 165 KiB (0%)
Title                                    : Signs/Songs
Language                                 : English
Default                                  : No
Forced                                   : No

Menu
00:00:00.000                             : en:Opening
00:01:49.109                             : en:Prologue
00:02:51.421                             : en:Part A
00:13:39.485                             : en:Part B
00:22:32.685                             : en:Ending
00:24:08.781                             : en:Next Episode Preview



Files:

[iKaos] Dragon Ball Z - S01 (01-39) [v3] Level Sets - Multi-Audio
  • Dragon Ball Z.S01E01.BluRay.1080p.FLAC.AC3.AAC.x264-iKaos [v3].mkv (3.4 GB)
  • Dragon Ball Z.S01E02.BluRay.1080p.FLAC.AC3.AAC.x264-iKaos [v3].mkv (3.0 GB)
  • Dragon Ball Z.S01E03.BluRay.1080p.FLAC.AC3.AAC.x264-iKaos [v3].mkv (2.9 GB)
  • Dragon Ball Z.S01E04.BluRay.1080p.FLAC.AC3.AAC.x264-iKaos [v3].mkv (3.1 GB)
  • Dragon Ball Z.S01E05.BluRay.1080p.FLAC.AC3.AAC.x264-iKaos [v3].mkv (2.9 GB)
  • Dragon Ball Z.S01E06.BluRay.1080p.FLAC.AC3.AAC.x264-iKaos [v3].mkv (3.1 GB)
  • Dragon Ball Z.S01E07.BluRay.1080p.FLAC.AC3.AAC.x264-iKaos [v3].mkv (3.1 GB)
  • Dragon Ball Z.S01E08.BluRay.1080p.FLAC.AC3.AAC.x264-iKaos [v3].mkv (2.9 GB)
  • Dragon Ball Z.S01E09.BluRay.1080p.FLAC.AC3.AAC.x264-iKaos [v3].mkv (2.6 GB)
  • Dragon Ball Z.S01E10.BluRay.1080p.FLAC.AC3.AAC.x264-iKaos [v3].mkv (2.8 GB)
  • Dragon Ball Z.S01E11.BluRay.1080p.FLAC.AC3.AAC.x264-iKaos [v3].mkv (2.8 GB)
  • Dragon Ball Z.S01E12.BluRay.1080p.FLAC.AC3.AAC.x264-iKaos [v3].mkv (3.5 GB)
  • Dragon Ball Z.S01E13.BluRay.1080p.FLAC.AC3.AAC.x264-iKaos [v3].mkv (3.1 GB)
  • Dragon Ball Z.S01E14.BluRay.1080p.FLAC.AC3.AAC.x264-iKaos [v3].mkv (3.4 GB)
  • Dragon Ball Z.S01E15.BluRay.1080p.FLAC.AC3.AAC.x264-iKaos [v3].mkv (3.0 GB)
  • Dragon Ball Z.S01E16.BluRay.1080p.FLAC.AC3.AAC.x264-iKaos [v3].mkv (2.9 GB)
  • Dragon Ball Z.S01E17.BluRay.1080p.FLAC.AC3.AAC.x264-iKaos [v3].mkv (2.6 GB)
  • Dragon Ball Z.S01E18.BluRay.1080p.FLAC.AC3.AAC.x264-iKaos [v3].mkv (2.8 GB)
  • Dragon Ball Z.S01E19.BluRay.1080p.FLAC.AC3.AAC.x264-iKaos [v3].mkv (3.1 GB)
  • Dragon Ball Z.S01E20.BluRay.1080p.FLAC.AC3.AAC.x264-iKaos [v3].mkv (3.1 GB)
  • Dragon Ball Z.S01E21.BluRay.1080p.FLAC.AC3.AAC.x264-iKaos [v3].mkv (2.5 GB)
  • Dragon Ball Z.S01E22.BluRay.1080p.FLAC.AC3.AAC.x264-iKaos [v3].mkv (3.5 GB)
  • Dragon Ball Z.S01E23.BluRay.1080p.FLAC.AC3.AAC.x264-iKaos [v3].mkv (3.3 GB)
  • Dragon Ball Z.S01E24.BluRay.1080p.FLAC.AC3.AAC.x264-iKaos [v3].mkv (3.3 GB)
  • Dragon Ball Z.S01E25.BluRay.1080p.FLAC.AC3.AAC.x264-iKaos [v3].mkv (3.3 GB)
  • Dragon Ball Z.S01E26.BluRay.1080p.FLAC.AC3.AAC.x264-iKaos [v3].mkv (3.1 GB)
  • Dragon Ball Z.S01E27.BluRay.1080p.FLAC.AC3.AAC.x264-iKaos [v3].mkv (3.1 GB)
  • Dragon Ball Z.S01E28.BluRay.1080p.FLAC.AC3.AAC.x264-iKaos [v3].mkv (3.1 GB)
  • Dragon Ball Z.S01E29.BluRay.1080p.FLAC.AC3.AAC.x264-iKaos [v3].mkv (2.9 GB)
  • Dragon Ball Z.S01E30.BluRay.1080p.FLAC.AC3.AAC.x264-iKaos [v3].mkv (2.8 GB)
  • Dragon Ball Z.S01E31.BluRay.1080p.FLAC.AC3.AAC.x264-iKaos [v3].mkv (2.9 GB)
  • Dragon Ball Z.S01E32.BluRay.1080p.FLAC.AC3.AAC.x264-iKaos [v3].mkv (2.9 GB)
  • Dragon Ball Z.S01E33.BluRay.1080p.FLAC.AC3.AAC.x264-iKaos [v3].mkv (2.9 GB)
  • Dragon Ball Z.S01E34.BluRay.1080p.FLAC.AC3.AAC.x264-iKaos [v3].mkv (2.9 GB)
  • Dragon Ball Z.S01E35.BluRay.1080p.FLAC.AC3.AAC.x264-iKaos [v3].mkv (2.1 GB)
  • Dragon Ball Z.S01E36.BluRay.1080p.FLAC.AC3.AAC.x264-iKaos [v3].mkv (2.0 GB)
  • Dragon Ball Z.S01E37.BluRay.1080p.FLAC.AC3.AAC.x264-iKaos [v3].mkv (2.2 GB)
  • Dragon Ball Z.S01E38.BluRay.1080p.FLAC.AC3.AAC.x264-iKaos [v3].mkv (2.1 GB)
  • Dragon Ball Z.S01E39.BluRay.1080p.FLAC.AC3.AAC.x264-iKaos [v3].mkv (2.0 GB)

There are currently no comments. Feel free to leave one :)

Code:

  • //nyaa.tracker.wf:7777/announce
  • udp://open.stealth.si:80/announce
  • udp://tracker.opentrackr.org:1337/announce
  • udp://tracker.coppersurfer.tk:6969/announce
  • udp://exodus.desync.com:6969/announce
DOWNLOAD Torrent