Loading...

Game of Thrones (2011) Season 08 S08 + Featurettes (1080p AMZN WE...

  • Category TV
  • Type HEVC/x265
  • Language English
  • Total size 5.5 GB
  • Uploaded By UTRCorp
  • Downloads 1044
  • Last checked 3 months ago
  • Date uploaded 4 months ago
  • Seeders 19
  • Leechers 20

Infohash : DB68A958800E66C7FC753673C9BD61621B77DA56


Media Information

Code:

General
Format : Matroska
Format version : Version 4 / Version 2
File size : 815 MiB
Duration : 1 h 21 min
Overall bit rate : 1 392 kb/s
Movie name : Game of Thrones S08E03 (1080p x265 10bit FS Joy)[UTR]
Encoded date : UTC 2019-04-29 13:49:20
Writing application : mkvmerge v31.0.0 ('Dolores In A Shoestand') 64-bit
Writing library : libebml v1.3.6 + libmatroska v1.4.9
Writing frontend : StaxRip v2.0.0.1, a JoyBell Encode

Video
ID : 1
Format : HEVC
Format/Info : High Efficiency Video Coding
Format profile : Main [email protected]@Main
Codec ID : V_MPEGH/ISO/HEVC
Duration : 1 h 21 min
Bit rate : 1 201 kb/s
Width : 1 920 pixels
Height : 1 080 pixels
Display aspect ratio : 16:9
Frame rate mode : Constant
Frame rate : 23.976 (24000/1001) FPS
Color space : YUV
Chroma subsampling : 4:2:0
Bit depth : 10 bits
Bits/(Pixel*Frame) : 0.024
Stream size : 703 MiB (86%)
Writing library : x265 3.0_Au+14-c7e5878bdd31:[Windows][MSVC 1916][64 bit] 10bit
Encoding settings : cpuid=1111039 / frame-threads=3 / numa-pools=12 / wpp / no-pmode / no-pme / no-psnr / ssim / log-level=2 / input-csp=1 / input-res=1920x1080 / interlace=0 / total-frames=117744 / level-idc=0 / high-tier=1 / uhd-bd=0 / ref=4 / no-allow-non-conformance / no-repeat-headers / annexb / no-aud / no-hrd / info / hash=0 / no-temporal-layers / open-gop / min-keyint=23 / keyint=250 / gop-lookahead=0 / bframes=8 / b-adapt=2 / b-pyramid / bframe-bias=20 / rc-lookahead=80 / lookahead-slices=4 / scenecut=40 / radl=0 / no-splice / no-intra-refresh / ctu=64 / min-cu-size=8 / no-rect / no-amp / max-tu-size=32 / tu-inter-depth=1 / tu-intra-depth=1 / limit-tu=0 / rdoq-level=2 / dynamic-rd=0.00 / ssim-rd / signhide / no-tskip / nr-intra=0 / nr-inter=0 / constrained-intra / strong-intra-smoothing / max-merge=3 / limit-refs=3 / limit-modes / me=3 / subme=3 / merange=57 / temporal-mvp / weightp / no-weightb / no-analyze-src-pics / deblock=0:0 / sao / no-sao-non-deblock / rd=4 / no-early-skip / rskip / no-fast-intra / no-tskip-fast / no-cu-lossless / no-b-intra / no-splitrd-skip / rdpenalty=0 / psy-rd=0.00 / psy-rdoq=1.00 / no-rd-refine / no-lossless / cbqpoffs=0 / crqpoffs=0 / rc=abr / bitrate=1200 / qcomp=0.60 / qpstep=4 / stats-write=0 / stats-read=2 / cplxblur=20.0 / qblur=0.5 / ipratio=1.40 / pbratio=1.30 / aq-mode=2 / aq-strength=0.80 / cutree / zone-count=0 / no-strict-cbr / qg-size=32 / no-rc-grain / qpmax=69 / qpmin=0 / no-const-vbv / sar=0 / overscan=0 / videoformat=5 / range=0 / colorprim=2 / transfer=2 / colormatrix=1 / chromaloc=0 / display-window=0 / max-cll=0,0 / min-luma=0 / max-luma=1023 / log2-max-poc-lsb=8 / vui-timing-info / vui-hrd-info / slices=1 / no-opt-qp-pps / no-opt-ref-list-length-pps / multi-pass-opt-rps / scenecut-bias=0.05 / no-opt-cu-delta-qp / no-aq-motion / no-hdr / no-hdr-opt / no-dhdr10-opt / no-idr-recovery-sei / analysis-reuse-level=10 / scale-factor=0 / refine-intra=0 / refine-inter=0 / refine-mv=0 / refine-ctu-distortion=0 / limit-sao / ctu-info=0 / no-lowpass-dct / refine-analysis-type=0 / copy-pic=1 / max-ausize-factor=1.0 / no-dynamic-refine / no-single-sei / no-hevc-aq / no-svt / qp-adaptation-range=1.00
Default : Yes
Forced : No
Color range : Limited
Matrix coefficients : BT.709

Audio
ID : 2
Format : AAC
Format/Info : Advanced Audio Codec
Format profile : HE-AAC / LC
Codec ID : A_AAC
Duration : 1 h 21 min
Bit rate : 192 kb/s
Channel(s) : 6 channels
Channel positions : Front: L C R, Side: L R, LFE
Sampling rate : 48.0 kHz / 24.0 kHz
Frame rate : 23.438 FPS (1024 spf)
Compression mode : Lossy
Delay relative to video : 31 ms
Stream size : 111 MiB (14%)
Language : English
Default : No
Forced : No

Subtitle #1
ID : 3
Format : UTF-8
Codec ID : S_TEXT/UTF8
Codec ID/Info : UTF-8 Plain Text
Duration : 1 h 19 min
Bit rate : 8 b/s
Count of elements : 203
Stream size : 4.82 KiB (0%)
Language : English
Default : No
Forced : No

Subtitle #2
ID : 4
Format : UTF-8
Codec ID : S_TEXT/UTF8
Codec ID/Info : UTF-8 Plain Text
Duration : 1 h 21 min
Bit rate : 13 b/s
Count of elements : 412
Stream size : 7.87 KiB (0%)
Title : SDH
Language : English
Default : No
Forced : No

Menu
00:00:00.000 : en:Ratings
00:00:03.890 : en:Studio Logo
00:00:09.890 : en:Opening Credits
00:01:56.890 : en:The calm before the storm
00:06:57.890 : en:The Lord of Light enters the fight
00:13:38.890 : en:The dead are already here
00:20:07.890 : en:Silence in the crypts
00:20:58.890 : en:A snowstorm complicates the battle plan
00:29:42.890 : en:It's time to look the truth in the face
00:33:13.890 : en:Man the wall
00:44:05.890 : en:Wights infiltrate Winterfell
00:49:52.890 : en:What do we say to the god of death?
00:54:18.890 : en:Facing off with the Night King
01:01:25.890 : en:The dead outnumber the living
01:06:25.890 : en:Death has many faces
01:17:27.890 : en:Dawn approaches
01:19:57.890 : en:End Credits
01:21:20.890 : en:Next Time



Source Information

Code:

Release: Game.of.Thrones.S08.1080p.AMZN.WEB-DL.DDP5.1.x264-GoT


Code:


Note From UTR
We have no issue with individuals posting or re-uploading our torrents on a platform we aren't on. However, if this is something you'd like to do, please do so in a 'as-is' format. We ask that you do not create a new torrent, include all descriptions you see above including the UTR logo, tags, notes and screenshots. If you'd like to become a permanent poster on a website we don't post to, feel free to get in contact with a UniTeam member.

If possible please donate: BTC 1QA5fum5AyXvWzdVCkQzUNvw3Ef15fHRaR





Files:

Game of Thrones Season 8 (1080p Web-DL x265 10bit Joy)
  • Game of Thrones S08E03 The Long Night (1080p x265 10bit FS100 Joy).mkv (815.0 MB)
  • folder.jpg (186.5 KB)
  • Game of Thrones S08E01 Winterfell (1080p x265 10bit FS99 Joy).mkv (564.6 MB)
  • Game of Thrones S08E02 A Knight of the Seven Kingdoms (1080p x265 10bit FS100 Joy).mkv (585.5 MB)
  • Encoded by JoyBell (UTR).txt (3.2 KB)
  • Game of Thrones S08E04 The Last of the Starks (1080p x265 10bit FS99 Joy).mkv (778.5 MB)
  • Game of Thrones S08E05 The Bells (1080p x265 10bit FS95 Joy).mkv (812.7 MB)
  • Game of Thrones S08E06 The Iron Throne (1080p x265 10bit FS98 Joy).mkv (783.3 MB)
  • How to play HEVC (THIS FILE).txt (3.4 KB)
  • Ninite K-Lite Codecs Unattended Silent Installer and Updater.website (0.5 KB)
  • Featurettes
    • Florence + the Machine - ''Jenny of Oldstones'' Lyric Video - Game of Thrones (1080p x265 10bit Joy).mkv (30.7 MB)
    • Game of Thrones S08 Episode 1 Game Revealed (1080p x265 10bit Joy).mkv (121.3 MB)
    • Game of Thrones S08 Episode 1 Inside the Episode (1080p x265 10bit Joy).mkv (45.8 MB)
    • Game of Thrones S08 Episode 2 Game Revealed (1080p x265 10bit Joy).mkv (138.0 MB)
    • Game of Thrones S08 Episode 2 Inside the Episode (1080p x265 10bit Joy).mkv (51.4 MB)
    • Game of Thrones S08 Episode 3 Game Revealed (1080p x265 10bit Joy).mkv (279.5 MB)
    • Game of Thrones S08 Episode 3 Inside the Episode (1080p x265 10bit Joy).mkv (75.4 MB)
    • Game of Thrones S08 Episode 4 Game Revealed (1080p x265 10bit Joy).mkv (129.8 MB)
    • Game of Thrones S08 Episode 4 Inside the Episode (1080p x265 10bit Joy).mkv (59.3 MB)
    • Game of Thrones S08 Episode 5 Game Revealed (1080p x265 10bit Joy).mkv (205.0 MB)
    • Game of Thrones S08 Episode 5 Inside the Episode (1080p x265 10bit Joy).mkv (67.8 MB)
    • Game of Thrones S08 First Day on Set (1080p x265 10bit Joy).mkv (6.1 MB)
    • No Ep 6 Featurettes at this time.txt (0.0 KB)
    • SZA, The Weeknd, Travis Scott - “Power Is Power” Lyric Video - Game Of Thrones (1080p x265 10bit Joy).mkv (34.6 MB)

Comments

Code:

  • udp://tracker.coppersurfer.tk:6969/announce
  • udp://9.rarbg.com:2710/announce
  • udp://9.rarbg.to:2710/announce
  • udp://tracker.torrent.eu.org:451/announce
  • udp://exodus.desync.com:6969/announce
  • udp://tracker.tiny-vps.com:6969/announce
  • udp://open.demonii.si:1337/announce
  • udp://tracker.opentrackr.org:1337/announce
  • udp://tracker.internetwarriors.net:1337/announce
DOWNLOAD Torrent
X
Attention! Use a VPN when Accessing Free Content !
Your IP address is - Country:
Your Internet provider Tracks your Activity! Hide your IP ADDRESS with a VPN!
Bonus: Get Lag-Free Streams & No popups with any VPN Purchased !

Download Here