Loading...

Great British Menu S14E29 The Finals Banquet (1280x720p HD, 50fps...

  • Category TV
  • Type HD
  • Language English
  • Total size 2.2 GB
  • Uploaded By ElsonRoa
  • Downloads 21
  • Last checked 3 months ago
  • Date uploaded 4 months ago
  • Seeders 1
  • Leechers 0

Infohash : 6795811BBBA298C2892F512CFF130B8F822691AE

Great British Menu S14E29 The Finals Banquet (1280x720p HD, 50fps, soft Eng subs)

This year's Great British Menu comes to an all singing, all dancing climax with a star-studded banquet celebrating Britain's success in pop music at Abbey Road Studios.

Ahead of our chefs is the challenge of cooking in a kitchen they don't know, as well as having to scale up their dishes to provide the highest calibre of dining for a full banquet room of diners. And, in a Great British Menu first, they have to rise to the challenge of adapting their dishes for vegetarian diners.

Their guests are celebrities and unsung heroes who have helped create British music's unparalleled global reputation - artists such as Andrew, Ridgeley from Wham!, Martin Kemp of Spandau Ballet, Keisha Buchanan of the Sugababes, Peter Hook of Joy Division and New Order and Gary 'Mani' Mounfield from the Stone Roses.

At the end of the banquet all the guests vote for their favourite dish, choosing this year's Champion of Champions. Who will it be?

First broadcast: 17 May 2019
Duration: 1 hour

Torrent dead? Request reseed at torrentgalaxy.org - or ask at elsonroa at tutanota.com



Media info:-
General
Format : MPEG-4
Format profile : Base Media
Codec ID : isom (isom/iso2/avc1/mp41)
File size : 2.22 GiB
Duration : 58mn 58s
Overall bit rate : 5 389 Kbps
Writing application : Lavf57.83.100

Video
ID : 1
Format : AVC
Format/Info : Advanced Video Codec
Format profile : [email protected]
Format settings, CABAC : Yes
Format settings, ReFrames : 4 frames
Codec ID : avc1
Codec ID/Info : Advanced Video Coding
Duration : 58mn 58s
Bit rate : 5 064 Kbps
Width : 1 280 pixels
Height : 720 pixels
Display aspect ratio : 16:9
Frame rate mode : Constant
Frame rate : 50.000 fps
Color space : YUV
Chroma subsampling : 4:2:0
Bit depth : 8 bits
Scan type : Progressive
Bits/(Pixel*Frame) : 0.110
Stream size : 2.09 GiB (94%)
Encoded date : UTC 1904-01-01 00:00:00
Tagged date : UTC 1904-01-01 00:00:00
Color range : Limited
Color primaries : BT.709
Transfer characteristics : BT.709
Matrix coefficients : BT.709

Audio
ID : 2
Format : AAC
Format/Info : Advanced Audio Codec
Format profile : LC
Codec ID : 40
Duration : 58mn 58s
Bit rate mode : Constant
Bit rate : 317 Kbps
Channel(s) : 2 channels
Channel positions : Front: L R
Sampling rate : 48.0 KHz
Frame rate : 46.875 fps (1024 spf)
Compression mode : Lossy
Stream size : 134 MiB (6%)

Files:

Great British Menu S14E29 The Finals Banquet
  • About this torrent.txt (2.3 KB)
  • Great British Menu S14E29 The Finals Banquet.jpg (853.3 KB)
  • Great British Menu S14E29 The Finals Banquet.mp4 (2.2 GB)
  • Great British Menu S14E29 The Finals Banquet.srt (140.7 KB)
  • If this torrent is dead.txt (0.1 KB)
  • Torrent Downloaded From 1337xproxy.info.txt (0.0 KB)
  • [TGx]Downloaded from torrentgalaxy.org .txt (0.6 KB)

There are currently no comments. Feel free to leave one :)

Code:

  • udp://tracker.leechers-paradise.org:6969/announce
  • udp://bt.xxx-tracker.com:2710/announce
  • udp://tracker.internetwarriors.net:1337/announce
  • udp://tracker.openbittorrent.com:80/announce
  • udp://explodie.org:6969/announce
  • udp://tracker.moeking.me:6969/announce
  • udp://tracker.opentrackr.org:1337/announce
DOWNLOAD Torrent
X
Attention! Use a VPN when Accessing Free Content !
Your IP address is - Country:
Your Internet provider Tracks your Activity! Hide your IP ADDRESS with a VPN!
Bonus: Get Lag-Free Streams & No popups with any VPN Purchased !

Download Here