Loading...

White.Orchid.2018.HD1080P.X264.AAC.English.CHS-ENG Sub

  • Category Movies
  • Type h.264/x264
  • Language English
  • Total size 1.8 GB
  • Uploaded By Dingie
  • Downloads 48
  • Last checked 4 weeks ago
  • Date uploaded 1 month ago
  • Seeders 1
  • Leechers 1

Infohash : 348B85023B6E457AF2202280BDF4023D6F9C7DD9



White.Orchid.2018.HD1080P.X264.AAC.English.CHS-ENG

//www.imdb.com/title/tt3313182/

A shy investigator assumes the identity of a small town murder victim in order to solve her gruesome death.

General
Complete name : White.Orchid.2018.HD1080P.X264.AAC.English.CHS-ENG.mp4
Format : MPEG-4
Format profile : Base Media
Codec ID : isom (isom/avc1)
File size : 1.84 GiB
Duration : 1 h 28 min
Overall bit rate : 2 999 kb/s
Encoded date : UTC 2019-04-30 06:10:03
Tagged date : UTC 2019-04-30 06:10:03

Video
ID : 1
Format : AVC
Format/Info : Advanced Video Codec
Format profile : [email protected]
Format settings : CABAC / 4 Ref Frames
Format settings, CABAC : Yes
Format settings, Reference frames : 4 frames
Codec ID : avc1
Codec ID/Info : Advanced Video Coding
Duration : 1 h 28 min
Bit rate : 2 615 kb/s
Maximum bit rate : 11.3 Mb/s
Width : 1 920 pixels
Height : 1 080 pixels
Display aspect ratio : 16:9
Frame rate mode : Constant
Frame rate : 23.976 (24000/1001) FPS
Color space : YUV
Chroma subsampling : 4:2:0
Bit depth : 8 bits
Scan type : Progressive
Bits/(Pixel*Frame) : 0.053
Stream size : 1.61 GiB (87%)
Writing library : x264 core 157 r2935 545de2f
Encoding settings : cabac=1 / ref=3 / deblock=1:0:0 / analyse=0x3:0x113 / me=hex / subme=7 / psy=1 / psy_rd=1.00:0.00 / mixed_ref=1 /me_range=16 / chroma_me=1 / trellis=1 / 8x8dct=1 / cqm=0 / deadzone=21,11 / fast_pskip=1 / chroma_qp_offset=-2 / threads=6 / lookahead_threads=1 / sliced_threads=0 / nr=0 / decimate=1 / interlaced=0 / bluray_compat=0 / constrained_intra=0 / bframes=3 / b_pyramid=2 / b_adapt=1 / b_bias=0 / direct=1 / weightb=1 / open_gop=0 / weightp=2 / keyint=240 / keyint_min=23 / scenecut=40 / intra_refresh=0 / rc_lookahead=40 / rc=2pass / mbtree=1 / bitrate=2615 / ratetol=1.0 / qcomp=0.60 / qpmin=0 / qpmax=69 / qpstep=4 / cplxblur=20.0 / qblur=0.5 / ip_ratio=1.40 / aq=1:1.00
Encoded date : UTC 2019-04-30 06:10:03
Tagged date : UTC 2019-04-30 06:15:40
Codec configuration box : avcC

Audio
ID : 2
Format : AC-3
Format/Info : Audio Coding 3
Commercial name : Dolby Digital
Codec ID : ac-3
Duration : 1 h 28 min
Bit rate mode : Constant
Bit rate : 384 kb/s
Maximum bit rate : 406 kb/s
Channel(s) : 2 channels
Channel layout : L R
Sampling rate : 48.0 kHz
Frame rate : 31.250 FPS (1536 SPF)
Bit depth : 16 bits
Compression mode : Lossy
Stream size : 242 MiB (13%)
Language : English
Service kind : Complete Main
Encoded date : UTC 2019-04-30 06:14:35
Tagged date : UTC 2019-04-30 06:15:40

//imgur.com/a/teu5VSQ





Files:

  • White.Orchid.2018.HD1080P.X264.AAC.English.CHS-ENG.mp4 (1.8 GB)

There are currently no comments. Feel free to leave one :)

Code:

  • UDP://TRACKER.LEECHERS-PARADISE.ORG:6969/ANNOUNCE
DOWNLOAD Torrent