Loading...

The.Perfection.2018.WEBRip.x264-ION10

  • Category Movies
  • Type Mp4
  • Language English
  • Total size 882.6 MB
  • Uploaded By Dakshvv
  • Downloads 149
  • Last checked 1 month ago
  • Date uploaded 1 month ago
  • Seeders 19
  • Leechers 8

Infohash : FAA5DEFB789F8B23691B370F974935D8D29B1BAE




Code:



Video
ID : 1
Format : AVC
Format/Info : Advanced Video Codec
Format profile : [email protected]
Format settings : CABAC / 5 Ref Frames
Format settings, CABAC : Yes
Format settings, ReFrames : 5 frames
Codec ID : avc1
Codec ID/Info : Advanced Video Coding
Duration : 1 h 30 min
Bit rate : 1 100 kb/s
Width : 720 pixels
Height : 302 pixels
Display aspect ratio : 2.40:1
Original display aspect ratio : 2.40:1
Frame rate mode : Constant
Frame rate : 23.976 (24000/1001) FPS
Color space : YUV
Chroma subsampling : 4:2:0
Bit depth : 8 bits
Scan type : Progressive
Bits/(Pixel*Frame) : 0.211
Stream size : 713 MiB (81%)
Title : RARBG - The.Perfection.2018.WEBRip.x264-ION10
Writing library : x264 core 152 r2851M ba24899
Encoding settings : cabac=1 / ref=5 / deblock=1:-1:-1 / analyse=0x3:0x113 / me=umh / subme=9 / psy=1 / psy_rd=1.00:0.15 / mixed_ref=1 / me_range=16 / chroma_me=1 / trellis=2 / 8x8dct=1 / cqm=0 / deadzone=21,11 / fast_pskip=1 / chroma_qp_offset=-3 / threads=16 / lookahead_threads=1 / sliced_threads=0 / nr=0 / decimate=1 / interlaced=0 / bluray_compat=0 / constrained_intra=0 / bframes=3 / b_pyramid=2 / b_adapt=2 / b_bias=0 / direct=3 / weightb=1 / open_gop=0 / weightp=2 / keyint=250 / keyint_min=23 / scenecut=40 / intra_refresh=0 / rc_lookahead=50 / rc=2pass / mbtree=1 / bitrate=1100 / ratetol=1.0 / qcomp=0.60 / qpmin=0 / qpmax=69 / qpstep=4 / cplxblur=20.0 / qblur=0.5 / ip_ratio=1.40 / aq=1:1.00
Encoded date : UTC 2019-05-24 05:46:22
Tagged date : UTC 2019-05-24 05:46:22
Codec configuration box : avcC

Audio
ID : 2
Format : AAC LC
Format/Info : Advanced Audio Codec Low Complexity
Codec ID : mp4a-40-2
Duration : 1 h 30 min
Duration_LastFrame : -11 ms
Bit rate mode : Constant
Bit rate : 256 kb/s
Channel(s) : 2 channels
Channel layout : L R
Sampling rate : 48.0 kHz
Frame rate : 46.875 FPS (1024 SPF)
Compression mode : Lossy
Stream size : 166 MiB (19%)
Title : RARBG - The.Perfection.2018.WEBRip.x264-ION10
Language : English
Default : Yes
Alternate group : 1
Encoded date : UTC 2019-05-24 05:46:22
Tagged date : UTC 2019-05-24 05:46:22





Files:

The.Perfection.2018.WEBRip.x264-ION10
  • RARBG.txt (0.0 KB)
  • RARBG_DO_NOT_MIRROR.exe (0.1 KB)
  • Subs
    • 2_English.srt (75.1 KB)
    • 3_Finnish.srt (58.9 KB)
    • 4_German.srt (61.2 KB)
    • 5_Bokmal.srt (57.3 KB)
    • 6_Swedish.srt (57.2 KB)
  • The.Perfection.2018.WEBRip.x264-ION10.mp4 (882.3 MB)

There are currently no comments. Feel free to leave one :)

Code:

  • //tracker.trackerfix.com:80/announce
  • udp://9.rarbg.me:2770/announce
  • udp://9.rarbg.to:2780/announce
DOWNLOAD Torrent