Loading...

Stuck in Love (2012) [1080p x265 HEVC 10bit BD AAC 5.1] [Prof]

  • Category Movies
  • Type HEVC/x265
  • Language English
  • Total size 2.6 GB
  • Uploaded By Prof
  • Downloads 94
  • Last checked 3 weeks ago
  • Date uploaded 3 weeks ago
  • Seeders 3
  • Leechers 3

Stuck in Love

ComedyDrama

An acclaimed writer, his ex-wife, and their teenaged children come to terms with the complexities of love in all its forms over the course of one tumultuous year.

Infohash : CF790C1F1A1863A237B6CD2D0BE2E43F62765925



An acclaimed writer, his ex-wife, and their teenaged children come to terms with the complexities of love in all its forms over the course of one tumultuous year.

Director: Josh Boone
Writer: Josh Boone
Stars: Greg Kinnear, Jennifer Connelly, Lily Collins

IMDB







Format : Matroska
Format version : Version 4
File size : 2.63 GiB
Duration : 1 h 36 min
Overall bit rate : 3 887 kb/s
Movie name : Stuck In Love
Encoded date : UTC 2019-05-23 14:32:23
Writing application : mkvmerge v34.0.0 ('Sight and Seen') 64-bit
Writing library : libebml v1.3.7 + libmatroska v1.5.0

Video
ID : 1
Format : HEVC
Format/Info : High Efficiency Video Coding
Format profile : Main [email protected]@Main
Codec ID : V_MPEGH/ISO/HEVC
Duration : 1 h 36 min
Bit rate : 3 400 kb/s
Width : 1 920 pixels
Height : 1 080 pixels
Display aspect ratio : 16:9
Frame rate mode : Constant
Frame rate : 23.976 (24000/1001) FPS
Color space : YUV
Chroma subsampling : 4:2:0
Bit depth : 10 bits
Bits/(Pixel*Frame) : 0.068
Stream size : 2.30 GiB (87%)
Writing library : x265 2.4+68-011e09a0d4b2:[Windows][GCC 7.1.0][64 bit] 10bit
Encoding settings : cpuid=1173503 / frame-threads=2 / numa-pools=4 / wpp / no-pmode / no-pme / no-psnr / no-ssim / log-level=2 / input-csp=1 / input-res=1920x1080 / interlace=0 / total-frames=139368 / level-idc=0 / high-tier=1 / uhd-bd=0 / ref=4 / no-allow-non-conformance / no-repeat-headers / annexb / no-aud / no-hrd / info / hash=0 / no-temporal-layers / open-gop / min-keyint=23 / keyint=250 / bframes=8 / b-adapt=2 / b-pyramid / bframe-bias=0 / rc-lookahead=50 / lookahead-slices=6 / scenecut=40 / no-intra-refresh / ctu=64 / min-cu-size=8 / rect / no-amp / max-tu-size=32 / tu-inter-depth=1 / tu-intra-depth=1 / limit-tu=0 / rdoq-level=2 / dynamic-rd=0.00 / no-ssim-rd / signhide / no-tskip / nr-intra=0 / nr-inter=0 / no-constrained-intra / strong-intra-smoothing / max-merge=4 / limit-refs=3 / limit-modes / me=3 / subme=3 / merange=57 / temporal-mvp / weightp / no-weightb / no-analyze-src-pics / deblock=0:0 / sao / no-sao-non-deblock / rd=4 / no-early-skip / rskip / no-fast-intra / no-tskip-fast / no-cu-lossless / no-b-intra / rdpenalty=0 / psy-rd=0.30 / psy-rdoq=1.00 / no-rd-refine / analysis-mode=0 / no-lossless / cbqpoffs=0 / crqpoffs=0 / rc=crf / crf=19.0 / qcomp=0.60 / qpstep=4 / stats-write=0 / stats-read=0 / ipratio=1.40 / pbratio=1.30 / aq-mode=2 / aq-strength=1.00 / cutree / zone-count=0 / no-strict-cbr / qg-size=32 / no-rc-grain / qpmax=69 / qpmin=0 / sar=0 / overscan=0 / videoformat=5 / range=0 / colorprim=2 / transfer=2 / colormatrix=2 / chromaloc=0 / display-window=0 / max-cll=0,0 / min-luma=0 / max-luma=1023 / log2-max-poc-lsb=8 / vui-timing-info / vui-hrd-info / slices=1 / opt-qp-pps / opt-ref-list-length-pps / no-multi-pass-opt-rps / scenecut-bias=0.05 / no-opt-cu-delta-qp / no-aq-motion / no-hdr / no-hdr-opt / no-dhdr10-opt / refine-level=5 / scale-factor=0 / refine-intra=0 / refine-inter=0 / refine-mv=0 / no-limit-sao / ctu-info=0
Default : Yes
Forced : No

Audio
ID : 2
Format : AAC LC
Format/Info : Advanced Audio Codec Low Complexity
Codec ID : A_AAC-2
Duration : 1 h 36 min
Bit rate : 469 kb/s
Channel(s) : 6 channels
Channel layout : C L R Ls Rs LFE
Sampling rate : 48.0 kHz
Frame rate : 46.875 FPS (1024 SPF)
Compression mode : Lossy
Delay relative to video : 9 ms
Stream size : 325 MiB (12%)
Language : English
Default : Yes
Forced : No

Text #1
ID : 3
Format : PGS
Muxing mode : zlib
Codec ID : S_HDMV/PGS
Codec ID/Info : Picture based subtitle format used on BDs/HD-DVDs
Duration : 1 h 32 min
Bit rate : 42.8 kb/s
Count of elements : 3001
Stream size : 28.2 MiB (1%)
Language : English
Default : No
Forced : No

Text #2
ID : 4
Format : PGS
Muxing mode : zlib
Codec ID : S_HDMV/PGS
Codec ID/Info : Picture based subtitle format used on BDs/HD-DVDs
Duration : 1 h 32 min
Bit rate : 34.4 kb/s
Count of elements : 2331
Stream size : 22.7 MiB (1%)
Language : Spanish
Default : No
Forced : No

Menu
00:00:00.000 : en:Chapter 01
00:07:22.275 : en:Chapter 02
00:16:54.304 : en:Chapter 03
00:26:52.652 : en:Chapter 04
00:34:54.967 : en:Chapter 05
00:41:26.859 : en:Chapter 06
00:50:32.195 : en:Chapter 07
00:57:48.756 : en:Chapter 08
01:08:03.662 : en:Chapter 09
01:15:57.302 : en:Chapter 10
01:25:54.607 : en:Chapter 11
01:32:44.559 : en:Chapter 12

Source:

Files:

  • Stuck In Love (2012) [1080p x265 HEVC 10bit BD AAC 5.1] [Prof].mkv (2.6 GB)

There are currently no comments. Feel free to leave one :)

Code:

  • udp://tracker.leechers-paradise.org:6969/announce
  • udp://tracker.open-internet.nl:6969/announce
  • udp://open.demonii.si:1337/announce
  • udp://tracker.torrent.eu.org:451/announce
  • udp://tracker.cyberia.is:6969/announce
  • udp://tracker.tiny-vps.com:6969/announce
  • udp://thetracker.org:80/announce
  • udp://9.rarbg.me:2750/announce
  • udp://9.rarbg.to:2730/announce
DOWNLOAD Torrent