Loading...

Jurassic Galaxy 2018 720p HDRip CROPPED x264-Kamikaze

  • Category Movies
  • Type HD
  • Language English
  • Total size 1.7 GB
  • Uploaded By Dingie
  • Downloads 1421
  • Last checked 3 weeks ago
  • Date uploaded 3 weeks ago
  • Seeders 24
  • Leechers 36

Jurassic Galaxy

Science Fiction

In the near future, a ship of space explorers crash land on an unknown planet. They're soon met with some of their worst fears as they discover the planet is inhabited by monstrous dinosaurs.

Infohash : 318EAA0A13ABED2FDC5756BE56963120C4542C3E



Jurassic Galaxy 2018 720p HDRip CROPPED x264-Kamikaze

Source: 1080p KORSUB FHDRip H264 AAC-RTM - cropped the bottom line of subs off

//www.imdb.com/title/tt8783146/

In the near future, a ship of space explorers crash land on an unknown planet. They're soon met with some of their worst fears as they discover the planet is inhabited by monstrous dinosaurs.

General
Complete name : Jurassic Galaxy 2018 720p HDRip CROPPED x264-Kamikaze.mkv
Format : Matroska
Format version : Version 2
File size : 1.64 GiB
Duration : 1 h 16 min
Overall bit rate mode : Variable
Overall bit rate : 3 057 kb/s
Encoded date : UTC 2019-05-24 22:32:56
Writing application : mkvmerge v32.0.0 ('Astral Progressions') 64-bit
Writing library : libebml v1.3.7 + libmatroska v1.5.0

Video
ID : 1
Format : AVC
Format/Info : Advanced Video Codec
Format profile : [email protected]
Format settings : CABAC / 3 Ref Frames
Format settings, CABAC : Yes
Format settings, Reference frames : 3 frames
Format settings, GOP : M=4, N=23
Codec ID : V_MPEG4/ISO/AVC
Duration : 1 h 16 min
Bit rate mode : Variable
Bit rate : 2 959 kb/s
Maximum bit rate : 40.0 Mb/s
Width : 1 280 pixels
Height : 480 pixels
Display aspect ratio : 2.667
Frame rate mode : Constant
Frame rate : 23.976 (24000/1001) FPS
Color space : YUV
Chroma subsampling : 4:2:0
Bit depth : 8 bits
Scan type : Progressive
Bits/(Pixel*Frame) : 0.201
Stream size : 1.59 GiB (97%)
Writing library : x264 core 157 r2969 d4099dd

Audio
ID : 2
Format : MPEG Audio
Format version : Version 1
Format profile : Layer 3
Codec ID : A_MPEG/L3
Codec ID/Hint : MP3
Duration : 1 h 16 min
Bit rate mode : Constant
Bit rate : 96.0 kb/s
Channel(s) : 1 channel
Sampling rate : 44.1 kHz
Frame rate : 38.281 FPS (1152 SPF)
Compression mode : Lossy
Stream size : 52.8 MiB (3%)
Writing library : LAME3.98.2
Language : English
Default : Yes
Forced : No






Files:

Jurassic Galaxy 2018 720p HDRip CROPPED x264-Kamikaze
  • Jurassic Galaxy 2018 720p HDRip CROPPED x264-Kamikaze.mkv (1.6 GB)
  • Jurassic Galaxy 2018 720p HDRip CROPPED x264-Kamikaze.txt (3.5 KB)
  • Sample.mkv (20.2 MB)

There are currently no comments. Feel free to leave one :)

Code:

  • udp://tracker.coppersurfer.tk:6969/announce
DOWNLOAD Torrent