Loading...

World War Four 2018 720p KORSUB HDRip H264 AAC-RTM

  • Category Movies
  • Type HD
  • Language English
  • Total size 3.4 GB
  • Uploaded By Dingie
  • Downloads 181
  • Last checked 2 weeks ago
  • Date uploaded 3 weeks ago
  • Seeders 1
  • Leechers 0

Infohash : C4FC42B891AFFB158CCBDCC2CE21EB7C6AB4B373



World War Four 2018 720p KORSUB HDRip H264 AAC-RTM

//www.imdb.com/title/tt6395918/

can you survive a total war?

General
Complete name : World War Four 2018 720p KORSUB HDRip H264 AAC-RTM.mp4
Format : MPEG-4
Format profile : Base Media
Codec ID : isom (mp41)
File size : 3.37 GiB
Duration : 1 h 25 min
Overall bit rate : 5 650 kb/s
Encoded date : UTC 1970-01-01 00:00:00
Tagged date : UTC 1970-01-01 00:00:00
Writing application : PotEncoder

Video
ID : 1
Format : AVC
Format/Info : Advanced Video Codec
Format profile : [email protected]
Format settings : 1 Ref Frames
Format settings, CABAC : No
Format settings, Reference frames : 1 frame
Codec ID : avc1
Codec ID/Info : Advanced Video Coding
Duration : 1 h 25 min
Bit rate : 5 551 kb/s
Width : 1 280 pixels
Height : 720 pixels
Display aspect ratio : 16:9
Frame rate mode : Constant
Frame rate : 24.000 FPS
Color space : YUV
Chroma subsampling : 4:2:0
Bit depth : 8 bits
Scan type : Progressive
Bits/(Pixel*Frame) : 0.251
Stream size : 3.31 GiB (98%)
Encoded date : UTC 1970-01-01 00:00:00
Tagged date : UTC 1970-01-01 00:00:00
Codec configuration box : avcC

Audio
ID : 2
Format : AC-3
Format/Info : Audio Coding 3
Commercial name : Dolby Digital
Codec ID : ac-3
Duration : 1 h 25 min
Bit rate mode : Constant
Bit rate : 96.0 kb/s
Channel(s) : 2 channels
Channel layout : L R
Sampling rate : 44.1 kHz
Frame rate : 28.711 FPS (1536 SPF)
Bit depth : 16 bits
Compression mode : Lossy
Stream size : 58.7 MiB (2%)
Service kind : Complete Main
Encoded date : UTC 1970-01-01 00:00:00
Tagged date : UTC 1970-01-01 00:00:00

//imgur.com/a/ocDYhrY






Files:

World War Four 2018 720p KORSUB HDRip H264 AAC-RTM
  • World War Four 2018 720p KORSUB HDRip H264 AAC-RTM.mp4 (3.4 GB)
  • World War Four 2018 720p KORSUB HDRip H264 AAC-RTM.txt (3.4 KB)

There are currently no comments. Feel free to leave one :)

Code:

  • udp://tracker.coppersurfer.tk:6969/announce
DOWNLOAD Torrent